Захистити боса (Сезон 1) / 보스를 지켜라 / Bo-seu-ga Dal-la-jyeott-eo-yo / Protect the Boss (Season 1) (2011) 1080p Ukr/Kor | Sub Eng

Нові коментарі

Нова тема   Відповісти
Останній раз роздавалося danuta (2020-11-21)
Автор Повідомлення
Anonymous 







2017-05-26 22:23  
Захистити боса / Bo-seu-ga Dal-la-jyeott-eo-yo / Protect the Boss (2011) 1080p Ukr/Kor | Sub Eng

Захистити боса (Сезон 1) / 보스를 지켜라 / Bo-seu-ga Dal-la-jyeott-eo-yo / Protect the Boss (Season 1) (2011) 1080p Ukr/Kor | Sub Eng


Жанр: комедія, драма, романтичний
Країна: Південна Корея



Режисер: Сон Чон Хйон
Актори: Чі Сон, Чхве Кан Хі, Кім Дже Джун, Ван Джі Хе та інші

Сюжет:
Звичайна дівчина Но Ін Соль, що зневірилась у пошуках роботи, несподівано для себе отримує місце особистої помічниці спадкоємця великої компанії з кепським характером. Без престижної освіти та з хуліганським минулим їй доведеться з усіх сил постаратися, аби досягти успіху там, де спіткала невдача найкращих.


Тривалість: 1 серія: ~ 65 хв (цілком серій: 18)
Перелік серій:
Епізод 01
Епізод 02
Епізод 03
Епізод 04
Епізод 05
Епізод 06
Епізод 07
Епізод 08
Епізод 09
Епізод 10
Епізод 11
Епізод 12
Епізод 13
Епізод 14
Епізод 15
Епізод 16
Епізод 17
Епізод 18 (Заключний)
Якість: 1080p
Відео:
кодек:
розмір кадру: 1920 х 1080
бітрейт: ~4000 кб/с
Увага! Не відтворюватиметься на більшості "залізних" програвачів!
Цитата:
Format profile: [email protected]
ReFrames: 8 frames


Аудіо # 1:
мова: українська
переклад: багатоголосий закадровий
кодек: 2.0
бітрейт: 192 кб/с

Аудіо # 2:
мова: корейська
переклад: оригінал
кодек: 2.0
бітрейт: 384 кб/с

Джерело озвучення:
Студії каналу трансляція на Індиго TV

Субтитри # 1:
мова: українська (форсовані у місцях де немає перекладу, у серіях: 2, 5, 6, 8, 10, 11, 12, 16)
тип: програмні (м'які)
формат: *.srt

Субтитри # 2:
мова: англійська (повні)
тип: програмні (м'які)
формат: *.srt
Info
Format :
Format version : Version 4 / Version 2
File size : 1.97 GiB
Duration : 1 h 5 min
Overall bit rate : 4 283 kb/s
Encoded date : UTC 2017-05-26 16:48:57
Writing application : v12.0.0 ('Trust / Lust') 64bit
Writing library : libebml v1.3.4 + v1.4.5

Video
ID : 1
Format : AVC
Format/Info : Advanced Video Codec
Format profile : [email protected]
Format settings, CABAC : Yes
Format settings, ReFrames : 8 frames
Codec ID : V_MPEG4/ISO/AVC
Duration : 1 h 5 min
Bit rate : 3 704 kb/s
Width : 1 920 pixels
Height : 1 080 pixels
Display aspect ratio : 16:9
Frame rate mode : Constant
Frame rate : 29.970 (30000/1001) FPS
Color space : YUV
Chroma subsampling : 4:2:0
Bit depth : 8 bits
Scan type : Progressive
Bits/(Pixel*Frame) : 0.060
Stream size : 1.71 GiB (86%)
Writing library : core 116 r2037 f8ebd4a
Encoding settings : cabac=1 / ref=8 / deblock=1:0:0 / analyse=0x3:0x133 / me=umh / subme=9 / psy=1 / psy_rd=1.00:0.00 / mixed_ref=1 / me_range=16 / chroma_me=1 / trellis=2 / 8x8dct=1 / cqm=0 / deadzone=21,11 / fast_pskip=1 / chroma_qp_offset=-2 / threads=18 / sliced_threads=0 / nr=0 / decimate=1 / interlaced=0 / bluray_compat=0 / constrained_intra=0 / bframes=3 / b_pyramid=2 / b_adapt=2 / b_bias=0 / direct=3 / weightb=1 / open_gop=0 / weightp=2 / keyint=250 / keyint_min=25 / scenecut=40 / intra_refresh=0 / rc_lookahead=60 / rc=crf / mbtree=1 / crf=22.0 / qcomp=0.60 / qpmin=10 / qpmax=51 / qpstep=4 / ip_ratio=1.40 / aq=1:1.00
Default : Yes
Forced : No

Audio #1
ID : 2
Format : AC-3
Format/Info : Audio Coding 3
Mode extension : CM (complete main)
Format settings, Endianness : Big
Codec ID : A_AC3
Duration : 1 h 5 min
Bit rate mode : Constant
Bit rate : 192 kb/s
Channel(s) : 2 channels
Channel positions : Front: L R
Sampling rate : 48.0 kHz
Frame rate : 31.250 FPS (1536 spf)
Bit depth : 16 bits
Compression mode : Lossy
Stream size : 90.6 MiB (4%)
Language : Ukrainian
Default : Yes
Forced : Yes

Audio #2
ID : 3
Format : AC-3
Format/Info : Audio Coding 3
Mode extension : CM (complete main)
Format settings, Endianness : Big
Codec ID : A_AC3
Duration : 1 h 5 min
Bit rate mode : Constant
Bit rate : 384 kb/s
Channel(s) : 2 channels
Channel positions : Front: L R
Sampling rate : 48.0 kHz
Frame rate : 31.250 FPS (1536 spf)
Bit depth : 16 bits
Compression mode : Lossy
Delay relative to video : 28 ms
Stream size : 181 MiB (9%)
Language : Korean
Default : No
Forced : No

Text
ID : 4
Format : UTF-8
Codec ID : S_TEXT/UTF8
Codec ID/Info : UTF-8 Plain Text
Duration : 1 h 4 min
Bit rate : 65 b/s
Count of elements : 950
Stream size : 31.1 KiB (0%)
Language : English
Default : No
Forced : No
Скріншоти
b


Запис з ТБ - РОМЕО
Зведення і постер - drakon87

Джерело:
Особиста оцінка: 10 - без зайвих вагань рекомендую всім!


Бронзовий реліз (на рейтинг впливає 75% завантаженого)
 Трекер:    Зареєстрований   

Завантажити / скачати серіал українською



відео для новачків



 Зареєстрований:   2017-05-26 22:23
 Розмір:   37.09 GB 
 Оцінка серіалу:   5.5/10 (Голосів: 20)
   
Stefurak_kolya 
Новенький


З нами з: 06.05.14
Востаннє: 28.11.20
Повідомлень: 14

2017-05-26 22:39  
Помилилися країною. Серіал вироблено у Південній Кореї.
igor911 
Модератор відео


З нами з: 18.01.08
Востаннє: 28.11.20
Повідомлень: 15083

2017-05-27 08:59  
Anonymous, треба додати перелік серій та вказати, в яких серіях присутні (чи відсутні, якщо таких менше) українські форсовані субтитри. Решту я виправив сам.

Додано через 13 хвилин 5 секунд:

Також треба додати корейську назву.

pvm 
Поважний учасник


З нами з: 05.03.10
Востаннє: 02.05.20
Повідомлень: 240

2017-06-03 14:06  
Як цікаво:
Особиста оцінка: 10 - без зайвих вагань рекомендую всім!
Оцінка серіалу: 1/10 (Голосів: 10)

igor911 
Модератор відео


З нами з: 18.01.08
Востаннє: 28.11.20
Повідомлень: 15083

2017-06-03 14:08  
pvm написано:
Оцінка серіалу: 1/10 (Голосів: 10)

є тут один неадекват, котрий скриптом накручує по десятку одиниць у всіх релізах "неугодних" йому релізерів.

danuta 
Частий відвідувач


З нами з: 06.03.09
Востаннє: 20.11.20
Повідомлень: 27

2018-08-15 22:28  
а мені сподобалось Happy
легкий та няшний серіал.

Я в захваті від Чі Сона. Дуже класний актор (переглянула багато його ролей). Одна з найкращих його робіт це Вбий мене, зціли мене. Якби вона була українською, взагалі б було шикарно.

Тanya 
Новенький


З нами з: 16.05.15
Востаннє: 28.02.20
Повідомлень: 7

2018-10-02 20:29  
Мені дуже сподобався цей серіал! Навіть перебільшив мої сподівання.
Ваш часовий пояс: GMT + 2 Години

Нова тема   Відповісти