Як досягти успіху в бізнесі нічого не роблячи / How to Succeed in Business Without Really Trying (1967) Remux 1080p Ukr/Eng | Sub Eng

Нові коментарі

Нова тема   Відповісти
Останній раз роздавалося barmaley77 (2017-10-19)
Автор Повідомлення
Babamin 
Частий відвідувач


З нами з: 29.12.15
Востаннє: 19.10.17
Повідомлень: 33

2017-05-24 01:09  
Як досягти успіху в бізнесі нічого не роблячи / How to Succeed in Business Without Really Trying (1967) Remux 1080p Ukr/Eng | Sub Eng



Жанр: мюзикл, комедія
Країна: США



Кінокомпанія: The Mirisch Corporation
Режисер: Девід Свіфт
Актори: Роберт Морс, Мішель Лі, Руді Веллі, Ентоні Тіг, Морін Артур, Джон Майхерс, Керол Вортінгтон, Кей Рейнолдс, Рут Кобарт, Семмі Сміт, Дженіс Керролл, Лорі Патрік, Ерін O'Брайен-Мур, Енн Сеймур, Хелен Верба

Сюжет:
Молодому роботязі Джею Пайрпонту Фінчу набридло мити вікна в офісах. Чим частіше він дивиться на« білих комірців », які сидять за столами в численних компаніях та корпораціях, тим більше йому хочеться опинитися на їхньому місці. І одного разу Фінч вирішує виконати свою мрію. Він купує книгу «Як досягти успіху в бізнесі, нічого не роблячи», вивчає її від корки до корки і влаштовується в відділ пошти у «Всесвітню компанію хвірток». Коли сатирик Шеперд Мід писав книгу «Як досягти успіху в бізнесі, нічого не роблячи», він напевно не підозрював, що вона стане біблією всіх «білих комірців» і іншого офісного планктону, oj просиджує стільці в численних корпораціях, холдингах і акціонерних товариствах. Але диво сталося. Працівники офісів вчили поради Міда напам'ять. А сама книга швидко привернула увагу сценаристів Віллі Гілберта і Джека Вайнсток, які вирішили перетворити її спочатку в п'єсу з офісного життя, а потім і в веселий сатиричний мюзикл.

Тривалість: 02:01:25
Якість: Remux 1080p
Контейнер:

Відео:
кодек:
розмір кадру: 1920 х 1080
бітрейт: 29997 кб/с

Аудіо # 1:
мова: українська
переклад: багатоголосий закадровий
кодек: 2.0
бітрейт: 192 кб/с

Аудіо # 2:
мова: англійська
переклад: оригінал
кодек: -HD MA / Core 2.0
бітрейт: 2122 кб/с / 1509 кб/с

Субтитри:
мова: англійська
тип: програмні (м'які)
формат: *.srt
MInfo:
General
Complete name : How.to.Succeed.in.Business.Without.Really.Trying.1967.Remux.
Format :
Format version : Version 4 / Version 2
File size : 27.3 GiB
Duration : 2 h 1 min
Overall bit rate mode : Variable
Overall bit rate : 32.2 Mb/s
Movie name : How to Succeed in Business Without Really Trying (1967) Remux -Toloka
Encoded date : UTC 2017-05-23 21:01:18
Writing application : mkvmerge v11.0.0 ('Alive') 64bit
Writing library : libebml v1.3.4 + libmatroska v1.4.5

Video
ID : 1
Format : AVC
Format/Info : Advanced Video Codec
Format profile : [email protected]
Format settings, CABAC : Yes
Format settings, ReFrames : 4 frames
Codec ID : V_MPEG4/ISO/AVC
Duration : 2 h 1 min
Bit rate mode : Variable
Bit rate : 29.9 Mb/s
Maximum bit rate : 35.0 Mb/s
Width : 1 920 pixels
Height : 1 080 pixels
Display aspect ratio : 16:9
Frame rate mode : Constant
Frame rate : 23.976 (24000/1001) FPS
Color space : YUV
Chroma subsampling : 4:2:0
Bit depth : 8 bits
Scan type : Progressive
Bits/(Pixel*Frame) : 0.601
Stream size : 25.4 GiB (93%)
Title : How.to.Succeed.in.Business.Without.Really.Trying.1967.Remux -Hurtom
Language : English
Default : Yes
Forced : No

Audio #1
ID : 2
Format : AC-3
Format/Info : Audio Coding 3
Mode extension : CM (complete main)
Format settings, Endianness : Big
Codec ID : A_AC3
Duration : 2 h 1 min
Bit rate mode : Constant
Bit rate : 192 kb/s
Channel(s) : 2 channels
Channel positions : Front: L R
Sampling rate : 48.0 kHz
Frame rate : 31.250 FPS (1536 spf)
Bit depth : 16 bits
Compression mode : Lossy
Stream size : 167 MiB (1%)
Title : багатоголосий закадровий "amc"
Language : Ukrainian
Default : Yes
Forced : No

Audio #2
ID : 3
Format :
Format/Info : Digital Theater Systems
Format profile : MA / Core
Mode : 16
Format settings, Endianness : Big
Codec ID : A_DTS
Duration : 2 h 1 min
Bit rate mode : Variable / Constant
Bit rate : 2 122 kb/s / 1 509 kb/s
Channel(s) : 2 channels
Channel positions : Front: L R
Sampling rate : 48.0 kHz
Frame rate : 93.750 FPS (512 spf)
Bit depth : 24 bits
Compression mode : Lossless / Lossy
Stream size : 1.80 GiB (7%)
Language : English
Default : No
Forced : No

Text
ID : 4
Format : UTF-8
Codec ID : S_TEXT/UTF8
Codec ID/Info : UTF-8 Plain Text
Duration : 1 h 58 min
Bit rate : 92 b/s
Count of elements : 1896
Stream size : 80.3 KiB (0%)
Language : English
Default : Yes
Forced : No
Скріншоти:







Подяка пану slavik_v_z за українську доріжку
Зведення звуку: Babamin


Золотий реліз (завантажене не впливає на рейтинг)
 Трекер:    Зареєстрований   

Завантажити / скачати фільм українською



відео для новачків



 Зареєстрований:   2017-05-24 01:09
 Розмір:   27.33 GB 
 Оцінка фільму:   9.7/10 (Голосів: 3)
   
waldi-hurtom 
VIP


З нами з: 07.10.12
Востаннє: 19.10.17
Повідомлень: 685

2017-05-27 00:11  
Чудовий фільм! 9 з 10. Єдиний недолік релізу - важкуват, 27 Гбайт трохи забагато. Дякую за реліз, хоча 720p був би більш популярний.
Babamin 
Частий відвідувач


З нами з: 29.12.15
Востаннє: 19.10.17
Повідомлень: 33

2017-05-28 09:04  
waldi-hurtom написано:
Дякую за реліз, хоча 720p був би більш популярний.

720p

Ваш часовий пояс: GMT + 2 Години

Нова тема   Відповісти