Лего Скубі-Ду. Жахи лицарських часів / Lego Scooby-Doo Knight Time Terror (2015) HDTV 1080p Ukr/Eng

Нові коментарі

Нова тема   Відповісти
Автор Повідомлення
sergiyko.5 
VIP


З нами з: 25.02.16
Востаннє: 23.08.17
Повідомлень: 1007

2017-05-23 21:30  
Лего Скубі-Ду. Жахи лицарських часів / Lego Scooby-Doo Knight Time Terror (2015) HDTV 1080p Ukr/Eng

Лего Скубі-Ду. Жахи лицарських часів / Lego Scooby-Doo Knight Time Terror (2015) HDTV 1080p Ukr/Eng

Жанр: пригоди, комедія
Країна: США
Режисер: Рік Моралес
Ролі озвучують: Френк Уелкер, Меттью Ліллард, Кейт Мікуччи, Грей Гріффін

Сюжет:
Містична команда відправляється в маєток щоб досліджувати дивні випадки, де чорний лицар тероризує всіх, хто намагається знайти скарби, заховані господарем будинку.




Тривалість: 00:21:37
Якість: HDTV

Відео: кодек: розмір кадру: 1920 х 1080 бітрейт: 5000 кб/с
Аудіо # 1: мова: українська переклад: професійний дубльований кодек: 2.0 бітрейт: 192 кб/с
Аудіо # 2: мова: англійська переклад: оригінал кодек: 5.1 бітрейт: 384 кб/с
Джерело озвучення:
Про файл:
General
Unique ID : 194005769193666375174629918820801245384 (0x91F426EB44764218B66D74E56388F0C8)
Complete name : E:\MULTFILMS\Lego Scooby-Doo Knight Time Terror.2015.HDTV.1080p.Ukr.Eng.
Format :
Format version : Version 4 / Version 2
File size : 885 MiB
Duration : 21mn 36s
Overall bit rate : 5 725 Kbps
Movie name : rip by sergiyko
Encoded date : UTC 2017-05-23 18:22:01
Writing application : mkvmerge v11.0.0 ('Alive') 64bit
Writing library : libebml v1.3.4 + libmatroska v1.4.5
DURATION : 00:21:36.768000000
NUMBER_OF_FRAMES : 40524
NUMBER_OF_BYTES : 31122432
_STATISTICS_WRITING_APP : mkvmerge v11.0.0 ('Alive') 64bit
_STATISTICS_WRITING_DATE_UTC : 2017-05-23 18:22:01
_STATISTICS_TAGS : BPS DURATION NUMBER_OF_FRAMES NUMBER_OF_BYTES

Video
ID : 1
Format : AVC
Format/Info : Advanced Video Codec
Format profile : [email protected]
Format settings, CABAC : Yes
Format settings, ReFrames : 4 frames
Codec ID : V_MPEG4/ISO/AVC
Duration : 21mn 36s
Bit rate : 5 035 Kbps
Width : 1 920 pixels
Height : 1 080 pixels
Display aspect ratio : 16:9
Frame rate mode : Constant
Frame rate : 25.000 fps
Color space : YUV
Chroma subsampling : 4:2:0
Bit depth : 8 bits
Scan type : Progressive
Bits/(Pixel*Frame) : 0.097
Stream size : 778 MiB (88%)
Title : Lego Scooby-Doo Knight Time Terror
Writing library : core 148 r2705 3f5ed56
Encoding settings : cabac=1 / ref=4 / deblock=1:6:6 / analyse=0x3:0x113 / me=umh / subme=8 / psy=1 / psy_rd=1.00:0.00 / mixed_ref=1 / me_range=16 / chroma_me=1 / trellis=1 / 8x8dct=1 / cqm=0 / deadzone=21,11 / fast_pskip=1 / chroma_qp_offset=-2 / threads=12 / lookahead_threads=2 / sliced_threads=0 / nr=0 / decimate=1 / interlaced=0 / bluray_compat=0 / constrained_intra=0 / bframes=3 / b_pyramid=2 / b_adapt=2 / b_bias=0 / direct=3 / weightb=1 / open_gop=0 / weightp=2 / keyint=250 / keyint_min=25 / scenecut=40 / intra_refresh=0 / rc_lookahead=50 / rc=crf / mbtree=1 / crf=18.0 / qcomp=0.60 / qpmin=0 / qpmax=69 / qpstep=4 / ip_ratio=1.40 / aq=1:1.00
Language : English
Default : Yes
Forced : No
Color range : Limited
Matrix coefficients : BT.709
DURATION : 00:21:36.800000000
NUMBER_OF_FRAMES : 32420
NUMBER_OF_BYTES : 834220369
_STATISTICS_WRITING_APP : mkvmerge v11.0.0 ('Alive') 64bit
_STATISTICS_WRITING_DATE_UTC : 2017-05-23 18:22:01
_STATISTICS_TAGS : BPS DURATION NUMBER_OF_FRAMES NUMBER_OF_BYTES

Audio #1
ID : 2
Format : AC-3
Format/Info : Audio Coding 3
Mode extension : CM (complete main)
Format settings, Endianness : Big
Codec ID : A_AC3
Duration : 21mn 36s
Bit rate mode : Constant
Bit rate : 192 Kbps
Channel(s) : 2 channels
Channel positions : Front: L R
Sampling rate : 48.0 KHz
Compression mode : Lossy
Stream size : 29.7 MiB (3%)
Title : DUB | ПлюсПлюс
Language : Ukrainian
Default : Yes
Forced : Yes
DURATION : 00:21:36.800000000
NUMBER_OF_FRAMES : 40525
NUMBER_OF_BYTES : 62246400
_STATISTICS_WRITING_APP : mkvmerge v11.0.0 ('Alive') 64bit
_STATISTICS_WRITING_DATE_UTC : 2017-05-23 18:22:01
_STATISTICS_TAGS : BPS DURATION NUMBER_OF_FRAMES NUMBER_OF_BYTES

Audio #2
ID : 3
Format : AC-3
Format/Info : Audio Coding 3
Mode extension : CM (complete main)
Format settings, Endianness : Big
Codec ID : A_AC3
Duration : 21mn 36s
Bit rate mode : Constant
Bit rate : 384 Kbps
Channel(s) : 6 channels
Channel positions : Front: L C R, Side: L R, LFE
Sampling rate : 48.0 KHz
Compression mode : Lossy
Stream size : 59.4 MiB (7%)
Title : Original
Language : English
Default : No
Forced : No
Скріншоти:


Запис/зведення: sergiyko


 Трекер:    Зареєстрований   

Завантажити / скачати мультфільм українською



відео для новачків



 Зареєстрований:   2017-05-23 21:30
 Розмір:   885 MB 
 Оцінка мультфільму:   10/10 (Голосів: 5)
   
Ваш часовий пояс: GMT + 2 Години

Нова тема   Відповісти