Зникнення Харухі Судзумії / Suzumiya Haruhi no Shoushitsu / 涼宮ハルヒの消失 (2010) 720p Ukr/Jap | Sub Ukr

Нові коментарі

Нова тема   Відповісти
Автор Повідомлення
hetzendorf 
Відео Гуртом - підтримка та поширення
Відео Гуртом - підтримка та поширення


З нами з: 23.07.15
Востаннє: 22.08.17
Повідомлень: 404

2017-05-21 20:29  
Зникнення Харухі Судзумії / Suzumiya Haruhi no Shoushitsu / 涼宮ハルヒの消失 (2010) 720p Ukr/Jap | Sub Ukr

Зникнення Харухі Судзумії / Suzumiya Haruhi no Shoushitsu / 涼宮ハルヒの消失 (2010) 720p Ukr/Jap | Sub Ukr


Жанр: Комедія, Драма, Містика, Надприродне, Романтика, Школа
Країна: Японія



9.39 (4856 голосів)

Кінокомпанія: Kadokawa Pictures, Kadokawa Shoten, KlockWorx, Kyoto Animation, Lantis
Режисер: Тацуя Ішіхара (Tatsuya Ishihara), Ясухіро Такемото (Yasuhiro Takemoto)
Ролі озвучують: Айя Хірано (Aya Hirano), Томокадзу Суґіта (Tomokazu Sugita), Мінорі Чіхара (Minori Chihara), Юко Ґото (Yûko Gotô), Дайсуке Оно (Daisuke Ono), Нацуко Куватані (Natsuko Kuwatani), Юкі Мацуока (Yuki Matsuoka), Мінору Шіраіші (Minoru Shiraishi), Меґумі Мацумото (Megumi Matsumoto), Саяка Аокі (Sayaka Aoki)

Сюжет:
Фільм є продовженням телесеріалу «Меланхолія Харухі Судзумії», з сюжетом якого тісно пов'язаний. За сюжетом «Зникнення», Кьон — член шкільного гуртка «Команда SOS», організованого Харухі, — в один грудневий день виявляє, що світ за ніч повністю змінився: зокрема, гуртка більше не існує, і інші учасники його не впізнають.


Тривалість: 2:41:47
Якість:
Відео:
кодек:
розмір кадру: 1280 х 720
бітрейт: 2 427 кб/с

Аудіо # 1:
мова: українська
переклад: багатоголосий закадровий
кодек: FLAC 2.0
бітрейт: 480 кб/с

Аудіо # 2:
мова: японська
переклад: оригінал
кодек: Vorbis 2.0
бітрейт: 256 кб/с

Джерело озвучення:


Субтитри:
мова: українська
тип: програмні (м'які)
формат: *.ass
Info
General
Unique ID : 157038955871972758636147338614102680569 (0x76249A4E25624F0B4B57E086C979E3F9)
Complete name : Suzumiya_Haruhi_no_Shoushitsu_720p_Hi10p_Ukr_UAMAX.
Format :
Format version : Version 4 / Version 2
File size : 3.52 GiB
Duration : 2 h 41 min
Overall bit rate mode : Variable
Overall bit rate : 3 112 kb/s
Movie name : Reanimedia
Encoded date : UTC 2017-05-21 15:36:42
Writing application : mkvmerge v8.8.0 ('Wind at my back') 32bit
Writing library : libebml v1.3.3 + libmatroska v1.4.4

Video
ID : 1
Format : AVC
Format/Info : Advanced Video Codec
Format profile : High [email protected]
Format settings, CABAC : Yes
Format settings, ReFrames : 16 frames
Codec ID : V_MPEG4/ISO/AVC
Duration : 2 h 41 min
Bit rate : 2 427 kb/s
Width : 1 280 pixels
Height : 720 pixels
Display aspect ratio : 16:9
Frame rate mode : Constant
Frame rate : 23.976 (24000/1001) FPS
Color space : YUV
Chroma subsampling : 4:2:0
Bit depth : 10 bits
Scan type : Progressive
Bits/(Pixel*Frame) : 0.110
Stream size : 2.74 GiB (78%)
Writing library : core 129 r2230kMod 1cffe9f
Encoding settings : cabac=1 / ref=16 / deblock=1:-2:-2 / analyse=0x3:0x133 / me=umh / subme=11 / psy=1 / fade_compensate=0.00 / psy_rd=0.90:0.00 / mixed_ref=1 / me_range=32 / chroma_me=1 / trellis=2 / 8x8dct=1 / cqm=0 / deadzone=21,11 / fast_pskip=0 / chroma_qp_offset=-2 / threads=6 / lookahead_threads=1 / sliced_threads=0 / nr=0 / decimate=0 / interlaced=0 / bluray_compat=0 / constrained_intra=0 / bframes=16 / b_pyramid=2 / b_adapt=2 / b_bias=0 / direct=1 / weightb=1 / open_gop=0 / weightp=2 / keyint=250 / keyint_min=23 / scenecut=40 / intra_refresh=0 / rc=crf / mbtree=0 / crf=14.0000 / qcomp=0.70 / qpmin=0 / qpmax=28 / qpstep=4 / ip_ratio=1.40 / pb_ratio=1.30 / aq=1:0.90
Language : Japanese
Default : No
Forced : No
Color range : Limited
Matrix coefficients : BT.709

Audio #1
ID : 2
Format : FLAC
Format/Info : Free Lossless Audio Codec
Codec ID : A_FLAC
Duration : 2 h 41 min
Bit rate mode : Variable
Bit rate : 480 kb/s
Channel(s) : 2 channels
Channel positions : Front: L R
Sampling rate : 48.0 kHz
Frame rate : 10.417 FPS (4608 spf)
Bit depth : 16 bits
Stream size : 556 MiB (15%)
Title : Ukr Flac 2ch
Language : Ukrainian
Default : Yes
Forced : No

Audio #2
ID : 3
Format : Vorbis
Format settings, Floor : 1
Codec ID : A_VORBIS
Duration : 2 h 41 min
Bit rate mode : Variable
Bit rate : 256 kb/s
Channel(s) : 2 channels
Sampling rate : 48.0 kHz
Frame rate : 75.350 FPS (637 spf)
Compression mode : Lossy
Stream size : 234 MiB (6%)
Title : Jpn 2 ch
Writing library : aoTuV 20110424 (UTC 2011-04-24)
Language : Japanese
Default : No
Forced : No

Text
ID : 4
Format : ASS
Codec ID : S_TEXT/ASS
Codec ID/Info : Advanced Sub Station Alpha
Duration : 2 h 41 min
Bit rate : 175 b/s
Count of elements : 2243
Compression mode : Lossless
Stream size : 207 KiB (0%)
Title : Укр. повні+написи+пісні by Gedet
Language : Ukrainian
Default : Yes
Forced : No
Скріншоти











Джерело:
Ролі озвучували: Rise, Emeri, Sonata, Anubis, Nisenkotana, Korman, Kinatan, Nesquik, Ray.
Робота зі звуком: Ray
Переклад: Gedet
Постер: Пан Олександр
Подяка за звукову доріжку: Ray

Особиста оцінка: 10 — божественне кіно про Богиню


Авторський реліз (завантажувати можна без реєстрації)
 Трекер:    Зареєстрований   

Завантажити / скачати аніме українською



відео для новачків



 Зареєстрований:   2017-05-21 20:29
 Розмір:   3.52 GB 
 Оцінка аніме:   9.7/10 (Голосів: 3)
   
Ліхтарник 
VIP


З нами з: 16.09.14
Востаннє: 22.08.17
Повідомлень: 623

2017-05-22 14:20  
Не забувай робити посилання на інші варіанти якості відео.
11FrYkT 
Модератор відео


З нами з: 20.02.11
Востаннє: 22.08.17
Повідомлень: 3810

2017-05-22 18:28  
hetzendorf , скріншоти не відповідають вказаному розміру
hetzendorf 
Відео Гуртом - підтримка та поширення
Відео Гуртом - підтримка та поширення


З нами з: 23.07.15
Востаннє: 22.08.17
Повідомлень: 404

2017-05-22 21:07  
11FrYkT, якось дивно VLC скріншотить @_@

Ліхтарник, я взагалі-то сподівався на автоматичний спойлер «Інші релізи» -_-

Ліхтарник 
VIP


З нами з: 16.09.14
Востаннє: 22.08.17
Повідомлень: 623

2017-05-27 22:04  
hetzendorf
Не виходить копірнув вашу назву, але бажаного результату не дало.

Patriot_ukr 
VIP


З нами з: 06.04.15
Востаннє: 22.08.17
Повідомлень: 1762

2017-05-27 22:08  
Спойлер "інші релізи" здається діє лише у розділах з фільмами (hd, не hd, саби)
Ліхтарник 
VIP


З нами з: 16.09.14
Востаннє: 22.08.17
Повідомлень: 623

2017-05-27 22:10  
Patriot_ukr
тому й додав посилання на все що ще є Happy

ccharodey 
Новенький


З нами з: 22.07.16
Востаннє: 22.08.17
Повідомлень: 23

2017-07-19 22:34  
А де взяти окремо Субтитри? Не хочу знов качати. Вмію сам робити Субтитри але не маю перекладу там де мене цікаво(нема перекладу)
Ваш часовий пояс: GMT + 2 Години

Нова тема   Відповісти