Бетмен. Мультсеріал / Batman: The Animated Series (Сезон 1-2) (1992) AVC Ukr/Eng

Нові коментарі

Нова тема   Відповісти
Автор Повідомлення
sergiyko.5 
VIP


З нами з: 25.02.16
Востаннє: 18.10.17
Повідомлень: 1133

2017-05-21 19:36  
Бетмен. Мультсеріал / Batman: The Animated Series (Сезон 1-2) (1992) AVC Ukr/Eng

Бетмен. Мультсеріал / Batman: The Animated Series (Сезон 1-2) (1992) AVC Ukr/Eng

Жанр: фантастика, пригоди, екранізація коміксу
Країна: США
Кінокомпанія: Warner Bros.
Режисер: Алан Бернет, Брюс Тімм
Актори/ролі озвучують: Кевін Сонрой, Боб Хатінгс, Лорен Лестер, Джейн Алан та інші.

Сюжет:
5 вересня 1992 Бет-всесвіт було заново відроджено: на американських телеекранах відбулася прем'єра нового мультсеріалу про Бетмена, відомого також як BTAS. Створений мультиплікаторами з кінокомпанії "Ворнер Бразерс" на хвилі популярності фільмів Тіма Бертона, серіал являв собою виключно вдалий синтез кращих сюжетних мотивів і стилістичних рішень багаторічної коміксової і кінематографічної "бетменіани"; навіть самі вибагливі фани відчували, що на цей раз все зроблено "так, як треба ". BTAS завоював таку популярність, що вплинув на поточну послідовність історій DC, подарувавши їй нових персонажів і змінивши імідж багатьох вже існуючих




Тривалість: 1 серія: 22:15 (цілком серій: 85)
Якість:

Відео: кодек: розмір кадру: 704 х 408 бітрейт: 1440 кб/с
Аудіо # 1: мова: українська переклад: багатоголосий закадровий кодек: 2.0 бітрейт: 192 кб/с Джерело озвучення:
Аудіо # 2: мова: англійська переклад: оригінал кодек: 2.0 бітрейт: 192 кб/с
Аудіо # 3: мова: англійська переклад: коментарі кодек: 2.0 бітрейт: 192 кб/с ( серія 1)
Перелік серій

Сезон 1
1 On Leather Wings
2 Christmas With the Joker
3 Nothing to Fear
4 The Last Laugh
5 Pretty Poison
6 The Underdwellers
7 P.O.V.
8 The Forgotten
9 Be A Clown
10 Two-Face, Part I
11 It's Never Too Late
12 I've Got Batman in My Basement
13 The Cat and the Claw, Part I
14 Heart of Ice
15 See No Evil
16 The Cat and the Claw, Part II
17 Two-Face, Part II
18 Beware the Gray Ghost
19 Prophecy of Doom
20 Feat of Clay, Part I
21 Feat of Clay, Part II
22 Joker's Favor
23 Vendetta
24 Fear of Victory
25 The Clock King
26 Appointment in Crime Alley
27 Mad as a Hatter
28 Dreams in Darkness
29 Eternal Youth
30 Perchance to Dream
31 The Cape and Cowl Conspiracy
32 Robin's Reckoning, Part I
33 Robin's Reckoning, Part II
34 The Laughing Fish
35 Night of the Ninja
36 Cat Scratch Fever
37 The Strange Secret of Bruce Wayne
38 Heart of Steel, Part I
39 Heart of Steel, Part II
40 If You're So Smart, Why Aren't You Rich?
41 Joker's Wild
42 Tyger, Tyger
43 Moon of the Wolf
44 Day of the Samurai
45 Terror in the Sky
46 Almost Got 'Im
47 Birds of a Feather
48 What Is Reality?
49 I Am the Night
50 Off Balance
51 The Man Who Killed Batman
52 Mudslide
53 Paging the Crime Doctor
54 Zatanna
55 The Mechanic
56 Harley and Ivy
57 Shadow of the Bat, Part I
58 Shadow of the Bat, Part II
59 Blind as a Bat
60 The Demon's Quest, Part I
61 The Demon's Quest, Part II
62 His Silicon Soul
63 Fire From Olympus
64 Read My Lips
65 The Worry Men

Сезон 2
01 Sideshow
02 A Bullet For Bullock
03 Trial
04 Avatar
05 House & Garden
06 The Terrible Trio
07 Harlequinade
08 Time Out of Joint
09 Catwalk
10 Bane
11 Baby-Doll
12 The Lion and the Unicorn
13 Showdown
14 Riddler's Reform
15 Second Chance
16 Harley's Holiday
17 Lock-Up
18 Make 'Em Laugh
19 Deep Freeze
20 Batgirl Returns
Про файл:
General
Unique ID : 244345004209524015488779970278484028450 (0xB7D322D34FB2336E84FFA3670E672C22)
Complete name : E:\MULTFILMS\Batman. The Animated Series (1992-1999) AVC\Batman. The Animated Series S01 AVC\S01E01.On Leather Wings.
Format :
Format version : Version 4 / Version 2
File size : 328 MiB
Duration : 22mn 21s
Overall bit rate : 2 052 Kbps
Movie name : rip by sergiyko
Encoded date : UTC 2017-05-21 13:31:17
Writing application : mkvmerge v11.0.0 ('Alive') 64bit
Writing library : libebml v1.3.4 + libmatroska v1.4.5
DURATION : 00:22:21.216000000
NUMBER_OF_FRAMES : 41913
NUMBER_OF_BYTES : 32189184
_STATISTICS_WRITING_APP : mkvmerge v11.0.0 ('Alive') 64bit
_STATISTICS_WRITING_DATE_UTC : 2017-05-21 13:31:17
_STATISTICS_TAGS : BPS DURATION NUMBER_OF_FRAMES NUMBER_OF_BYTES

Video
ID : 1
Format : AVC
Format/Info : Advanced Video Codec
Format profile : High@L3.1
Format settings, CABAC : Yes
Format settings, ReFrames : 12 frames
Codec ID : V_MPEG4/ISO/AVC
Duration : 22mn 21s
Bit rate : 1 435 Kbps
Width : 704 pixels
Height : 480 pixels
Display aspect ratio : 3:2
Frame rate mode : Constant
Frame rate : 23.976 fps
Color space : YUV
Chroma subsampling : 4:2:0
Bit depth : 8 bits
Scan type : Progressive
Bits/(Pixel*Frame) : 0.177
Stream size : 229 MiB (70%)
Title : S01E01.On Leather Wings
Writing library : core 146 r2538 121396c
Encoding settings : cabac=1 / ref=12 / deblock=1:1:1 / analyse=0x3:0x113 / me=umh / subme=9 / psy=1 / psy_rd=0.40:0.00 / mixed_ref=1 / me_range=16 / chroma_me=1 / trellis=2 / 8x8dct=1 / cqm=0 / deadzone=21,11 / fast_pskip=1 / chroma_qp_offset=-2 / threads=6 / lookahead_threads=1 / sliced_threads=0 / nr=0 / decimate=1 / interlaced=0 / bluray_compat=0 / constrained_intra=0 / bframes=5 / b_pyramid=2 / b_adapt=2 / b_bias=0 / direct=1 / weightb=1 / open_gop=0 / weightp=2 / keyint=250 / keyint_min=23 / scenecut=40 / intra_refresh=0 / rc_lookahead=40 / rc=crf / mbtree=1 / crf=18.0 / qcomp=0.60 / qpmin=0 / qpmax=69 / qpstep=4 / vbv_maxrate=17500 / vbv_bufsize=14000 / crf_max=0.0 / nal_hrd=none / filler=0 / ip_ratio=1.40 / aq=1:0.60
Language : English
Default : Yes
Forced : No
DURATION : 00:22:21.342000000
NUMBER_OF_FRAMES : 32160
NUMBER_OF_BYTES : 247086684
_STATISTICS_WRITING_APP : mkvmerge v11.0.0 ('Alive') 64bit
_STATISTICS_WRITING_DATE_UTC : 2017-05-21 13:31:17
_STATISTICS_TAGS : BPS DURATION NUMBER_OF_FRAMES NUMBER_OF_BYTES

Audio #1
ID : 2
Format : AC-3
Format/Info : Audio Coding 3
Mode extension : CM (complete main)
Format settings, Endianness : Big
Codec ID : A_AC3
Duration : 22mn 21s
Bit rate mode : Constant
Bit rate : 192 Kbps
Channel(s) : 2 channels
Channel positions : Front: L R
Sampling rate : 48.0 KHz
Compression mode : Lossy
Stream size : 30.7 MiB (9%)
Title : MOV
Language : Ukrainian
Default : Yes
Forced : Yes

Audio #2
ID : 3
Format : AC-3
Format/Info : Audio Coding 3
Mode extension : CM (complete main)
Format settings, Endianness : Big
Codec ID : A_AC3
Duration : 22mn 21s
Bit rate mode : Constant
Bit rate : 192 Kbps
Channel(s) : 2 channels
Channel positions : Front: L R
Sampling rate : 48.0 KHz
Compression mode : Lossy
Stream size : 30.7 MiB (9%)
Title : Original
Language : English
Default : No
Forced : No

Audio #3
ID : 4
Format : AC-3
Format/Info : Audio Coding 3
Mode extension : CM (complete main)
Format settings, Endianness : Big
Codec ID : A_AC3
Duration : 22mn 21s
Bit rate mode : Constant
Bit rate : 192 Kbps
Channel(s) : 2 channels
Channel positions : Front: L R
Sampling rate : 48.0 KHz
Compression mode : Lossy
Stream size : 30.7 MiB (9%)
Title : Coments
Language : English
Default : No
Forced : No
Скріншоти:




Використані для перекодування диски: https://toloka.to/t38622

Автор ріпа: sergiyko


Срібний реліз (на рейтинг впливає 50% завантаженого)
 Трекер:    Зареєстрований   

Завантажити / скачати мультфільм українською



відео для новачків



 Зареєстрований:   2017-06-12 08:43
 Розмір:   17.36 GB 
 Оцінка мультсеріалу:   9.4/10 (Голосів: 15)
   
dima77777 
Поважний учасник


З нами з: 29.11.12
Востаннє: 16.10.17
Повідомлень: 224

2017-05-21 20:58  
Класс дякую вам
pandalolpro 
Новенький


З нами з: 04.10.14
Востаннє: 18.10.17
Повідомлень: 3

2017-05-25 12:01  
[b]sergiyko.5[/b]
Будуть ріпи для інших дисків?

sergiyko.5 
VIP


З нами з: 25.02.16
Востаннє: 18.10.17
Повідомлень: 1133

2017-05-25 15:15  
pandalolpro
Звичайно

Dark Invader 
Модератор відео


З нами з: 06.01.11
Востаннє: 18.10.17
Повідомлень: 2051

2017-05-25 23:20  
sergiyko.5
А мультсеріал 2004 року?

sergiyko.5 
VIP


З нами з: 25.02.16
Востаннє: 18.10.17
Повідомлень: 1133

2017-05-25 23:42  
Dark Invader
не знаю

Violator 
VIP


З нами з: 14.04.09
Востаннє: 18.10.17
Повідомлень: 599

2017-05-27 21:08  
Субтитри також додайте англ., будь ласка...
sergiyko.5 
VIP


З нами з: 25.02.16
Востаннє: 18.10.17
Повідомлень: 1133

2017-05-27 21:12  
Субтитри не додам. Багато роботи з витяганням з DVD.
Violator 
VIP


З нами з: 14.04.09
Востаннє: 18.10.17
Повідомлень: 599

2017-05-27 21:20  
В мережі є вже готові, наприклад, https://subscene.com/subtitles/batman-the-animated-series-first-season/english/879432
sergiyko.5 
VIP


З нами з: 25.02.16
Востаннє: 18.10.17
Повідомлень: 1133

2017-06-03 18:35  
Додав 8-65 серії першого сезону. Сезон повний.
pandalolpro 
Новенький


З нами з: 04.10.14
Востаннє: 18.10.17
Повідомлень: 3

2017-06-04 16:53  
Дякую за .
sergiyko.5 
VIP


З нами з: 25.02.16
Востаннє: 18.10.17
Повідомлень: 1133

2017-06-12 08:43  
Додав другий сезон.
Patriot_ukr 
VIP


З нами з: 06.04.15
Востаннє: 18.10.17
Повідомлень: 1795

2017-10-09 18:31  
Ваш часовий пояс: GMT + 2 Години

Нова тема   Відповісти