Училище Кулі / Cooley High (1975) 720p Ukr/Eng

Нові коментарі

Нова тема   Відповісти
Автор Повідомлення
Anonymous 







2017-05-20 10:22  
Училище Кулі / Cooley High (1975) 720p Ukr/Eng

Училище Кулі / Cooley High (1975) 720p Ukr/Eng


Жанр: комедія, драма, романтичний
Країна: США



Кінокомпанія: American International Pictures (AIP)
Режисер: Майкл Шульц
Актори: Глінн Турман, Лоуренс Гілтон Джекобс, Гаррет Морріс, Синтія Девіс, Корін Роджерс

Сюжет:
Ностальгічний, зворушливий і смішний фільм про життя чиказького чорношкірого підлітка 60-х років.


Тривалість: 01:47:13
Якість: 720p
Відео:
кодек:
розмір кадру: 1280 х 694
бітрейт: 4867 кб/с

Аудіо # 1:
мова: українська
переклад: багатоголосий закадровий
кодек: 2.0
бітрейт: 192 кб/с

Аудіо # 2:
мова: англійська
переклад: оригінал
кодек: 5.1
бітрейт: 384 кб/с
Info
General
Unique ID : 254166636925204727378851594411983010474 (0xBF36B6B4823DD430A36E508D08FC7AAA)
Complete name : E:\Cooley High 1975 720p.
Format :
Format version : Version 4 / Version 2
File size : 4.08 GiB
Duration : 1h 47mn
Overall bit rate : 5 444 Kbps
Encoded date : UTC 2017-05-20 07:00:56
Writing application : mkvmerge v8.8.0 ('Wind at my back') 64bit
Writing library : libebml v1.3.3 + libmatroska v1.4.4
DURATION : 01:47:12.160000000
NUMBER_OF_FRAMES : 201005
NUMBER_OF_BYTES : 154371840
_STATISTICS_WRITING_APP : mkvmerge v8.8.0 ('Wind at my back') 64bit
_STATISTICS_WRITING_DATE_UTC : 2017-05-20 07:00:56
_STATISTICS_TAGS : BPS DURATION NUMBER_OF_FRAMES NUMBER_OF_BYTES

Video
ID : 1
Format : AVC
Format/Info : Advanced Video Codec
Format profile : [email protected]
Format settings, CABAC : Yes
Format settings, ReFrames : 4 frames
Codec ID : V_MPEG4/ISO/AVC
Duration : 1h 47mn
Bit rate : 4 867 Kbps
Width : 1 280 pixels
Height : 694 pixels
Display aspect ratio : 1.85:1
Frame rate mode : Constant
Frame rate : 23.976 fps
Color space : YUV
Chroma subsampling : 4:2:0
Bit depth : 8 bits
Scan type : Progressive
Bits/(Pixel*Frame) : 0.229
Stream size : 3.57 GiB (87%)
Writing library : core 146 r2538 121396c
Encoding settings : cabac=1 / ref=3 / deblock=1:-1:-1 / analyse=0x3:0x113 / me=hex / subme=7 / psy=1 / psy_rd=1.00:0.15 / mixed_ref=1 / me_range=16 / chroma_me=1 / trellis=1 / 8x8dct=1 / cqm=0 / deadzone=21,11 / fast_pskip=1 / chroma_qp_offset=-3 / threads=3 / lookahead_threads=1 / sliced_threads=0 / nr=0 / decimate=1 / interlaced=0 / bluray_compat=0 / constrained_intra=0 / bframes=3 / b_pyramid=2 / b_adapt=1 / b_bias=0 / direct=1 / weightb=1 / open_gop=0 / weightp=2 / keyint=250 / keyint_min=23 / scenecut=40 / intra_refresh=0 / rc_lookahead=40 / rc=2pass / mbtree=1 / bitrate=4867 / ratetol=1.0 / qcomp=0.60 / qpmin=0 / qpmax=69 / qpstep=4 / cplxblur=20.0 / qblur=0.5 / ip_ratio=1.40 / aq=1:1.00
Default : Yes
Forced : No
DURATION : 01:47:13.225000000
NUMBER_OF_FRAMES : 154243
NUMBER_OF_BYTES : 3913483707
_STATISTICS_WRITING_APP : mkvmerge v8.8.0 ('Wind at my back') 64bit
_STATISTICS_WRITING_DATE_UTC : 2017-05-20 07:00:56
_STATISTICS_TAGS : BPS DURATION NUMBER_OF_FRAMES NUMBER_OF_BYTES

Audio #1
ID : 2
Format : AC-3
Format/Info : Audio Coding 3
Mode extension : CM (complete main)
Format settings, Endianness : Big
Codec ID : A_AC3
Duration : 1h 47mn
Bit rate mode : Constant
Bit rate : 192 Kbps
Channel(s) : 2 channels
Channel positions : Front: L R
Sampling rate : 48.0 KHz
Bit depth : 16 bits
Compression mode : Lossy
Delay relative to video : -499ms
Stream size : 147 MiB (4%)
Title : AMC - MVO [Hurtom-Electroz]
Language : Ukrainian
Default : Yes
Forced : Yes
DURATION : 01:47:13.663000000
NUMBER_OF_FRAMES : 201052
NUMBER_OF_BYTES : 308815872
_STATISTICS_WRITING_APP : mkvmerge v8.8.0 ('Wind at my back') 64bit
_STATISTICS_WRITING_DATE_UTC : 2017-05-20 07:00:56
_STATISTICS_TAGS : BPS DURATION NUMBER_OF_FRAMES NUMBER_OF_BYTES

Audio #2
ID : 3
Format : AC-3
Format/Info : Audio Coding 3
Mode extension : CM (complete main)
Format settings, Endianness : Big
Codec ID : A_AC3
Duration : 1h 47mn
Bit rate mode : Constant
Bit rate : 384 Kbps
Channel(s) : 6 channels
Channel positions : Front: L C R, Side: L R, LFE
Sampling rate : 48.0 KHz
Bit depth : 16 bits
Compression mode : Lossy
Delay relative to video : -499ms
Stream size : 295 MiB (7%)
Language : English
Default : No
Forced : No
Скріншоти



Джерело:
Особиста оцінка: 7 - моїй подрузі не сподобалося
Подяка пану Sando7 за запис звуку з ТБ та пану Electroz за синхронізацію аудіо.


Срібний реліз (на рейтинг впливає 50% завантаженого)
 Трекер:    Зареєстрований   

Завантажити / скачати фільм українською



відео для новачків



 Зареєстрований:   2017-05-20 10:22
 Розмір:   4.08 GB 
 Оцінка фільму:   3.6/10 (Голосів: 14)
   
Інші релізи
   Училище Кулі / Cooley High (1975) Electroz  4 / 0   1.37 GB   2017-05-06 23:37 
Ваш часовий пояс: GMT + 2 Години

Нова тема   Відповісти