Загублений батальйон / The Lost Battalion (2001) AVC Ukr/Eng | Sub Eng

Нові коментарі

Нова тема   Відповісти
Автор Повідомлення
Anonymous 







2017-05-19 21:54  
Загублений батальйон / The Lost Battalion (2001) AVC Ukr/Eng | Sub Eng


Жанр: бойовик, драма, воєнний, військовий, історичний
Країна: США, Люксембург



Кінокомпанія: A&E Television Networks, The Carousel Picture Company, David Gerber Productions, Fox Television Network, Luxembourg Film Fund
Режисер: Рассел Малкей / Russell Mulcahy
Актори: Рік Шродер / Ricky Schroder, Філ Маккі / Phil McKee, Джемі Гарріс / Jamie Harris, Джей Родан / Jay Rodan, Адам Джеймс / Adam James, Даніель Кальтаджіроне / Daniel Caltagirone, Різ Майлз Томас / Rhys Miles Thomas, Артур Кремер / Arthur Kremer та інші

Сюжет:
У 1917 році американська армія вступила в союз з французами і англійцями, що воюють з Німеччиною. Жовтень 1918 року, Франція. Командир підрозділу, майор Чарльз Віттлсі, отримує наказ захопити і утримати стратегічно важливу позицію в Аргоннському лісі.
В запеклому бою, не дивлячись на колосальні втрати, американці все-таки займають потрібну позицію. Але як виявилось, вони сильно випередили лінію наступу і тепер опинилися в тилу ворога, у пастці...

Рейтинг FCC (США): TV-14 - містить матеріали, небажані для перегляду дітьми до14 років
Тривалість: 01:31:51
Якість: AVC
Відео:
кодек:
розмір кадру: 1024х 576
бітрейт: 2417 кб/с

Аудіо # 1:
мова: українська
переклад: двоголосий закадровий | Так Треба Продакшн
кодек: 5.1
бітрейт: 384 кб/с

Аудіо # 2:
мова: англійська
переклад: оригінал
кодек: 5.1
бітрейт: 448 кб/с

Субтитри:
мова: англійська
тип: програмні (м'які)
формат: *.srt

Збережено оригінальні розділи, як на Blu-ray
Info та log
Код:
Complete name               : The Lost Battalion (2001) [Ukr,Eng sub.Eng] AVC [Hurtom].
Format                      :
Format version              : Version 4 / Version 2
File size                   : 2.09 GiB
Duration                    : 1 h 31 min
Overall bit rate            : 3 252 kb/s
Movie name                  : Загублений батальйон / The Lost Battalion (2001) [Ukr,Eng sub.Eng] AVC [Hurtom]
Released date               : 2001
Cover                       : Yes
Comment                     : http://www.imdb.com/title/tt0287535/
Attachments                 : cover.jpg
ARTIST                      : Рік Шродер / Ricky Schroder, Філ Маккі / Phil McKee, Джемі Гарріс / Jamie Harris, Джей Родан / Jay Rodan, Адам Джеймс / Adam James, Даніель Кальтаджіроне / Daniel Caltagirone, Різ Майлз Томас / Rhys Miles Thomas, Артур Кремер / Arthur Kremer та інші
DIRECTOR                    : Рассел Малкей / Russell Mulcahy
GENRE                       : бойовик, драма, воєнний, військовий
SYNOPSIS                    : У 1917 році американська армія вступила в союз з французами і англійцями, що воюють з Німеччиною. Жовтень 1918 року, Франція. Командир підрозділу, майор Чарльз Віттлсі, отримує наказ захопити і утримати стратегічно важливу позицію в Аргоннському лісі. / В запеклому бою, не дивлячись на колосальні втрати, американці все-таки займають потрібну позицію. Але як виявилось, вони сильно випередили лінію наступу і тепер опинилися в тилу ворога, у пастці...
Url                         : https://toloka.to/t82020

Video
ID                          : 1
Format                      : AVC
Format/Info                 : Advanced Video Codec
Format profile              : [email protected]
Format settings, CABAC      : Yes
Format settings, ReFrames   : 12 frames
Codec ID                    : V_MPEG4/ISO/AVC
Duration                    : 1 h 31 min
Bit rate                    : 2 417 kb/s
Width                       : 1 024 pixels
Height                      : 576 pixels
Display aspect ratio        : 16:9
Frame rate mode             : Constant
Frame rate                  : 23.976 (24000/1001) FPS
Color space                 : YUV
Chroma subsampling          : 4:2:0
Bit depth                   : 8 bits
Scan type                   : Progressive
Bits/(Pixel*Frame)          : 0.171
Stream size                 : 1.55 GiB (74%)
Title                       : Загублений батальйон / The Lost Battalion (2001) AVC [MediaClub-neni]
Writing library             : core 142 r2409+42 04be48a tMod [[email protected]:2:0 X86_64]
Encoding settings           : cabac=1 / ref=12 / deblock=1:-3:-3 / analyse=0x3:0x133 / me=umh / subme=11 / psy=1 / fade_compensate=0.00 / psy_rd=1.00:0.25 / mixed_ref=1 / me_range=48 / chroma_me=1 / trellis=2 / 8x8dct=1 / cqm=0 / deadzone=21,11 / fast_pskip=0 / chroma_qp_offset=-4 / threads=9 / lookahead_threads=1 / sliced_threads=0 / nr=0 / decimate=0 / interlaced=0 / bluray_compat=0 / constrained_intra=0 / fgo=0 / bframes=8 / b_pyramid=2 / b_adapt=2 / b_bias=0 / direct=3 / weightb=1 / open_gop=0 / weightp=2 / keyint=250 / keyint_min=23 / scenecut=40 / intra_refresh=0 / rc=2pass / mbtree=0 / bitrate=2417 / ratetol=1.0 / qcomp=0.60 / qpmin=0:0:0 / qpmax=69:69:69 / qpstep=4 / cplxblur=20.0 / qblur=0.5 / ip_ratio=1.40 / pb_ratio=1.30 / aq=2:1.00 / aq-sensitivity=10.00 / aq-factor=1.00:1.00:1.00 / aq2=0 / aq3=0
Language                    : English
Default                     : Yes
Forced                      : Yes

Audio #1
ID                          : 2
Format                      : AC-3
Format/Info                 : Audio Coding 3
Format settings, Endianness : Big
Codec ID                    : A_AC3
Duration                    : 1 h 31 min
Bit rate mode               : Constant
Bit rate                    : 384 kb/s
Channel(s)                  : 6 channels
Channel positions           : Front: L C R, Side: L R, LFE
Sampling rate               : 48.0 kHz
Frame rate                  : 31.250 FPS (1536 spf)
Bit depth                   : 16 bits
Compression mode            : Lossy
Stream size                 : 252 MiB (12%)
Title                       : DVO [TTP, ICTV] 5.1 384 Kbps [Hurtom-Romario_O, bivis]
Language                    : Ukrainian
Service kind                : Complete Main
Default                     : Yes
Forced                      : Yes

Audio #2
ID                          : 3
Format                      : AC-3
Format/Info                 : Audio Coding 3
Format settings, Endianness : Big
Codec ID                    : A_AC3
Duration                    : 1 h 31 min
Bit rate mode               : Constant
Bit rate                    : 448 kb/s
Channel(s)                  : 6 channels
Channel positions           : Front: L C R, Side: L R, LFE
Sampling rate               : 48.0 kHz
Frame rate                  : 31.250 FPS (1536 spf)
Bit depth                   : 16 bits
Compression mode            : Lossy
Stream size                 : 294 MiB (14%)
Title                       : Original, 5.1 448 Kbps
Language                    : English
Service kind                : Complete Main
Default                     : No
Forced                      : No

Text
ID                          : 4
Format                      : UTF-8
Codec ID                    : S_TEXT/UTF8
Codec ID/Info               : UTF-8 Plain Text
Duration                    : 1 h 27 min
Bit rate                    : 47 b/s
Count of elements           : 1022
Stream size                 : 30.6 KiB (0%)
Title                       : Eng full
Language                    : English
Default                     : No
Forced                      : No

Menu
00:00:00.000                : :Chapter 01
00:06:48.699                : :Chapter 02
00:15:21.587                : :Chapter 03
00:24:10.824                : :Chapter 04
00:31:41.232                : :Chapter 05
00:42:18.077                : :Chapter 06
00:48:39.041                : :Chapter 07
00:55:43.298                : :Chapter 08
01:02:46.012                : :Chapter 09
01:10:29.975                : :Chapter 10
01:14:18.412                : :Chapter 11
01:19:45.781                : :Chapter 12
01:31:50.588                : :Chapter 13

Код:
[info]: frame I:979 Avg QP:14.69 size: 58772
[info]: frame P:48126 Avg QP:18.54 size: 20896
[info]: frame B:83017 Avg QP:19.48 size: 7252



Джерело: &
Подяка за українську доріжку Romario_O та bivis'у, за постер - eastern_sun.

ЗАЛИШАЙТЕСЬ ЯКОМОГА ДОВШЕ НА РОЗДАЧІ
ЗАВАНТАЖИВ САМ - ДАЙ ЗАВАНТАЖИТИ ІНШИМ!


Срібний реліз (на рейтинг впливає 50% завантаженого)
 Трекер:    Зареєстрований   

Завантажити / скачати фільм українською



відео для новачків



 Зареєстрований:   2017-05-19 22:10
 Розмір:   2.09 GB 
 Оцінка фільму:   5.8/10 (Голосів: 26)
   
Інші релізи
tar1k15 
Свій


З нами з: 10.03.12
Востаннє: 23.08.17
Повідомлень: 60

2017-05-20 00:18  
Як кіно?
docentus 
Новенький


З нами з: 15.04.15
Востаннє: 23.08.17
Повідомлень: 15

2017-05-20 15:46  
Хороший фільм, добре поставлені батальні сцени. Любителям цього жанру дивитися однозначно!
Форкуш 
VIP


З нами з: 03.02.10
Востаннє: 23.08.17
Повідомлень: 1834

2017-05-22 00:49  
Що зі звуком??? Скрипи, писки, рипить постійно...
Фільм дуже добротно знятий.

Anonymous 







2017-05-22 08:46  
Форкуш написано:
Що зі звуком???

Такий був в оригінальному релізі від Romario_O. На Толоці немає даних про наявність якіснішого запису.

Ваш часовий пояс: GMT + 2 Години

Нова тема   Відповісти