Урбанізм / Urbanized (2011) 720p Ukr/Eng | Sub Ukr/Eng

Нові коментарі

Нова тема   Відповісти
Автор Повідомлення
Omikron 
VIP


З нами з: 03.01.12
Востаннє: 23.10.17
Повідомлень: 319

2017-05-18 19:48  
Урбанізм / Urbanized (2011) 720p Ukr/Eng | Sub Ukr/Eng

Урбанізм / Urbanized (2011) 720p Ukr/Eng | Sub Ukr/Eng


Жанр: документальний
Країна: США, Велика Британія



Кінокомпанія: Swiss Dots
Режисер: Ґарі Гаствіт
Актори: Рем Кулхас / Rem Koolhaas, Ян Гейл / Jan Gehl, Майкл Соркін / Michael Sorkin, Оскар Німеєр / Oscar Niemeyer, Норман Фостер / Norman Foster, Енріке Пеньялоса / Enrique Penalosa, Джейн Джейкобс, Елен Данхем-Джонс, Роберт Хемонд та інші

Сюжет:
Незалежна документальна стрічка, що є завершальною частиною трилогії режисера Ґарі Гаствіта про дизайн - від мікро до макро. У стрічці йдеться про актуальні проблеми сучасних міст, інноваційні підходи до їх вирішення, а також про складнощі та особливості міського проектування в умовах невпинної урбанізації.


Українською мовою озвучено студією Омікрон спеціально для HURTOM.COM


Тривалість: 01:25:54
Якість: 720p
Відео:
кодек:
розмір кадру: 1280x720
бітрейт: 4128 кб/с

Аудіо # 1:
мова: українська | Омікрон
переклад: багатоголосий закадровий
кодек: 5.1
бітрейт: 448 кб/с

Аудіо # 2:
мова: англійська
переклад: оригінал
кодек: 5.1
бітрейт: 448 кб/с

Субтитри # 1:
мова: українська
тип: програмні (м'які)
формат: *.srt

Субтитри # 2:
мова: англійська
тип: програмні (м'які)
формат: *.srt
Скріншоти








Звіт Info

Format :
Format version : Version 2
File size : 3.08 GiB
Duration : 1 h 26 min
Overall bit rate : 5 126 kb/s
Encoded date : UTC 2017-05-12 20:58:57
Writing application : mkvmerge v2.9.0 ('Moanin'') built on May 22 2009 17:46:31
Writing library : libebml v0.7.7 + libmatroska v0.8.1

Video
ID : 1
Format : AVC
Format/Info : Advanced Video Codec
Format profile : [email protected]
Format settings, CABAC : Yes
Format settings, ReFrames : 7 frames
Codec ID : V_MPEG4/ISO/AVC
Duration : 1 h 26 min
Bit rate : 4 128 kb/s
Width : 1 280 pixels
Height : 720 pixels
Display aspect ratio : 16:9
Frame rate mode : Constant
Frame rate : 23.976 (24000/1001) FPS
Color space : YUV
Chroma subsampling : 4:2:0
Bit depth : 8 bits
Scan type : Progressive
Bits/(Pixel*Frame) : 0.187
Stream size : 2.48 GiB (81%)
Writing library : core 120 r2164 da19765
Encoding settings : cabac=1 / ref=7 / deblock=1:-3:-3 / analyse=0x3:0x113 / me=umh / subme=10 / psy=1 / psy_rd=1.00:0.00 / mixed_ref=1 / me_range=24 / chroma_me=1 / trellis=2 / 8x8dct=1 / cqm=0 / deadzone=21,11 / fast_pskip=0 / chroma_qp_offset=-2 / threads=6 / sliced_threads=0 / nr=0 / decimate=0 / interlaced=0 / bluray_compat=0 / constrained_intra=0 / bframes=7 / b_pyramid=2 / b_adapt=2 / b_bias=0 / direct=3 / weightb=1 / open_gop=0 / weightp=2 / keyint=240 / keyint_min=23 / scenecut=40 / intra_refresh=0 / rc_lookahead=50 / rc=crf / mbtree=1 / crf=18.0 / qcomp=0.80 / qpmin=10 / qpmax=51 / qpstep=4 / vbv_maxrate=50000 / vbv_bufsize=62500 / crf_max=0.0 / nal_hrd=none / ip_ratio=1.40 / aq=1:0.80
Language : English
Default : Yes
Forced : No

Audio #1
ID : 2
Format : AC-3
Format/Info : Audio Coding 3
Mode extension : CM (complete main)
Format settings, Endianness : Big
Codec ID : A_AC3
Duration : 1 h 26 min
Bit rate mode : Constant
Bit rate : 448 kb/s
Channel(s) : 6 channels
Channel positions : Front: L C R, Side: L R, LFE
Sampling rate : 48.0 kHz
Frame rate : 31.250 FPS (1536 spf)
Compression mode : Lossy
Stream size : 276 MiB (9%)
Title : MVO Omikron studio for Hurtom.com
Language : Ukrainian
Default : Yes
Forced : No

Audio #2
ID : 3
Format : AC-3
Format/Info : Audio Coding 3
Mode extension : CM (complete main)
Format settings, Endianness : Big
Codec ID : A_AC3
Duration : 1 h 26 min
Bit rate mode : Constant
Bit rate : 448 kb/s
Channel(s) : 6 channels
Channel positions : Front: L C R, Side: L R, LFE
Sampling rate : 48.0 kHz
Frame rate : 31.250 FPS (1536 spf)
Compression mode : Lossy
Stream size : 276 MiB (9%)
Language : English
Default : No
Forced : No

Text #1
ID : 4
Format : UTF-8
Codec ID : S_TEXT/UTF8
Codec ID/Info : UTF-8 Plain Text
Language : Ukrainian
Default : No
Forced : No

Text #2
ID : 5
Format : UTF-8
Codec ID : S_TEXT/UTF8
Codec ID/Info : UTF-8 Plain Text
Language : English
Default : No
Forced : No


Авторський реліз (завантажувати можна без реєстрації)
 Трекер:    Зареєстрований   

Завантажити / скачати фільм українською



відео для новачків



 Зареєстрований:   2017-05-18 19:48
 Розмір:   3.08 GB 
 Оцінка фільму:   9.9/10 (Голосів: 11)
   
IvXynta 
Попереджень: 1
Попереджень: 1 


З нами з: 09.05.16
Востаннє: 24.10.17
Повідомлень: 262

2017-05-21 04:31  
Коли не всі міста та села мешканці планети будуватимуть за единим сучасним стандартом "як у нашій казці" тоді високооплачувана професія 'урбанізатор' не матиме в світі жодних конкуретів.
EvGaS 
Відео Гуртом - субтитрування
Відео Гуртом - субтитрування


З нами з: 27.02.12
Востаннє: 24.10.17
Повідомлень: 4113

2017-05-22 14:36  
Гадаю, цю програму варто показувати кожному працівнику мерії в кожному місті країни.
Ваш часовий пояс: GMT + 2 Години

Нова тема   Відповісти