Уречевлення / Objectified (2009) 720p Ukr/Eng | Sub Ukr/Eng

Нові коментарі

Нова тема   Відповісти
Автор Повідомлення
Omikron 
VIP


З нами з: 03.01.12
Востаннє: 27.07.17
Повідомлень: 313

2017-05-18 19:35  
Уречевлення / Objectified (2009) 720p Ukr/Eng | Sub Ukr/Eng

Уречевлення / Objectified (2009) 720p Ukr/Eng | Sub Ukr/Eng


Жанр: документальний
Країна: Велика Британія



Кінокомпанія: Plexi Productions, Swiss Dots
Режисер: Ґарі Гаствіт / Gary Hustwit
Актори: Паола Антонеллі / Paola Antonelli, Кріс Бенгл / Chris Bangle, Ендрю Блаувельт / Andrew Blauvelt та інші

Сюжет:
Незалежна документальна стрічка про складні стосунки людини з товарами масового виробництва і, відповідно, з дизайнерами цих товарів. Стрічка пропонує по-новому поглянути на творчу роботу, що стоїть за будь-якою річчю − від зубної щітки до ноутбука. Це розповідь про дизайнерів, які щодня переосмислюють і змінюють наше рукотворне середовище.


Українською мовою озвучено студією Омікрон спеціально для HURTOM.COM


Тривалість: 01:15:42
Якість: 720p
Відео:
кодек:
розмір кадру: 1280x720
бітрейт: 7833 кб/с

Аудіо # 1:
мова: українська | Омікрон
переклад: багатоголосий закадровий
кодек: 5.1
бітрейт: 448 кб/с

Аудіо # 2:
мова: англійська
переклад: оригінал
кодек: 5.1
бітрейт: 448 кб/с

Субтитри # 1:
мова: українська
тип: програмні (м'які)
формат: *.srt

Субтитри # 2:
мова: англійська
тип: програмні (м'які)
формат: *.srt

Скріншоти








Звіт Info

Format :
Format version : Version 2
File size : 4.62 GiB
Duration : 1 h 15 min
Overall bit rate mode : Variable
Overall bit rate : 8 734 kb/s
Encoded date : UTC 2017-05-12 21:53:17
Writing application : mkvmerge v2.9.0 ('Moanin'') built on May 22 2009 17:46:31
Writing library : libebml v0.7.7 + libmatroska v0.8.1

Video
ID : 1
Format : AVC
Format/Info : Advanced Video Codec
Format profile : [email protected]
Format settings, CABAC : Yes
Format settings, ReFrames : 5 frames
Codec ID : V_MPEG4/ISO/AVC
Duration : 1 h 15 min
Bit rate mode : Variable
Bit rate : 7 833 kb/s
Maximum bit rate : 25.0 Mb/s
Width : 1 280 pixels
Height : 720 pixels
Display aspect ratio : 16:9
Frame rate mode : Constant
Frame rate : 23.976 (24000/1001) FPS
Color space : YUV
Chroma subsampling : 4:2:0
Bit depth : 8 bits
Scan type : Progressive
Bits/(Pixel*Frame) : 0.354
Stream size : 4.05 GiB (88%)
Writing library : core 96 r1602 69588a7
Encoding settings : cabac=1 / ref=5 / deblock=1:0:0 / analyse=0x3:0x133 / me=umh / subme=7 / psy=1 / psy_rd=1.00:0.00 / mixed_ref=1 / me_range=16 / chroma_me=1 / trellis=1 / 8x8dct=1 / cqm=0 / deadzone=21,11 / fast_pskip=1 / chroma_qp_offset=-2 / threads=12 / sliced_threads=0 / nr=0 / decimate=1 / interlaced=0 / constrained_intra=0 / bframes=5 / b_pyramid=0 / b_adapt=1 / b_bias=0 / direct=1 / weightb=1 / weightp=2 / keyint=240 / keyint_min=24 / scenecut=40 / intra_refresh=0 / rc_lookahead=40 / rc=2pass / mbtree=1 / bitrate=7833 / ratetol=1.0 / qcomp=0.60 / qpmin=10 / qpmax=51 / qpstep=4 / cplxblur=20.0 / qblur=0.5 / vbv_maxrate=25000 / vbv_bufsize=25000 / ip_ratio=1.40 / aq=1:1.00 / nal_hrd=vbr
Language : English
Default : Yes
Forced : No

Audio #1
ID : 2
Format : AC-3
Format/Info : Audio Coding 3
Mode extension : CM (complete main)
Format settings, Endianness : Big
Codec ID : A_AC3
Duration : 1 h 15 min
Bit rate mode : Constant
Bit rate : 448 kb/s
Channel(s) : 6 channels
Channel positions : Front: L C R, Side: L R, LFE
Sampling rate : 48.0 kHz
Frame rate : 31.250 FPS (1536 spf)
Compression mode : Lossy
Stream size : 243 MiB (5%)
Title : MVO Omikron studio for Hurtom.com
Language : Ukrainian
Default : Yes
Forced : No

Audio #2
ID : 3
Format : AC-3
Format/Info : Audio Coding 3
Mode extension : CM (complete main)
Format settings, Endianness : Big
Codec ID : A_AC3
Duration : 1 h 15 min
Bit rate mode : Constant
Bit rate : 448 kb/s
Channel(s) : 6 channels
Channel positions : Front: L C R, Side: L R, LFE
Sampling rate : 48.0 kHz
Frame rate : 31.250 FPS (1536 spf)
Compression mode : Lossy
Stream size : 243 MiB (5%)
Language : English
Default : No
Forced : No

Text #1
ID : 4
Format : UTF-8
Codec ID : S_TEXT/UTF8
Codec ID/Info : UTF-8 Plain Text
Language : Ukrainian
Default : No
Forced : No

Text #2
ID : 5
Format : UTF-8
Codec ID : S_TEXT/UTF8
Codec ID/Info : UTF-8 Plain Text
Language : English
Default : No
Forced : No


Авторський реліз (завантажувати можна без реєстрації)
 Трекер:    Зареєстрований   

Завантажити / скачати фільм українською



відео для новачків



 Зареєстрований:   2017-05-18 19:35
 Розмір:   4.62 GB 
 Оцінка фільму:   9.3/10 (Голосів: 7)
   
Форкуш 
VIP


З нами з: 03.02.10
Востаннє: 27.07.17
Повідомлень: 1792

2017-05-19 00:15  
Меншого розміру не буде?
EvGaS 
Відео Гуртом - підтримка та поширення
Відео Гуртом - підтримка та поширення


З нами з: 27.02.12
Востаннє: 26.07.17
Повідомлень: 3284

2017-05-22 18:02  
Стільки разів з’являвся епл та стільки часу його нахвалювали, що не витримав і видалив цю шоурекламу.
Не те щоб не користувався їхньою продукцією, але дійсно, стільки часу на його непряму рекламу тут витратили, що зацікавленість та довіра до решти програми просто випарувалася. Ну який мегадизайн, коли ти соваєш мобілку до задньої кишені, сідаєш на телефон, і викидаєш його? Зате вигляд класний. А так довго розповідали про функціонал та непомітність гарного дизайну речей замість понтів. Rolleyes (1)

RockKinder 
Частий відвідувач


З нами з: 09.01.09
Востаннє: 25.07.17
Повідомлень: 42

2017-05-30 00:48  
Цікава документалка. Якось до її перегляду ніколи не приділяв надто багато уваги дизайну різних побутових предметів.
А тепер просто став по іншому дивитись на речі, в прямому і переносному сенсі.
Дякую за реліз. Омікрону дякую за якісне озвучення.

Ваш часовий пояс: GMT + 2 Години

Нова тема   Відповісти