Гельветика / Helvetica (2007) 1080p Ukr/Eng | Sub Ukr/Eng

Нові коментарі

Нова тема   Відповісти
Автор Повідомлення
Omikron 
VIP


З нами з: 03.01.12
Востаннє: 26.05.17
Повідомлень: 306

2017-05-18 19:26  
Гельветика / Helvetica (2007) 1080p Ukr/Eng | Sub Ukr/Eng

Гельветика / Helvetica (2007) 1080p Ukr/Eng | Sub Ukr/Eng


Жанр: документальний
Країна: Велика Британія



Кінокомпанія: Veer, Swiss Dots
Режисер: Ґарі Гаствіт / Gary Hustwit
У фільмі знімались: Манфред Шульц / Manfred Schulz, Массімо Віньєллі / Massimo Vignelli, Рік Пойнор / Rick Poynor, Вім Кроувел / Wim Crouwel, Метью Картер / Matthew Carter, Альфред Гоффманн / Alfred Hoffmann та інші

Сюжет:
Незалежна документальна стрічка на тему типографіки та графічного дизайну. На прикладі шрифта Гельветика, якому 2007 року виповнилося 50 років, у стрічці розглядається вплив шрифтів на наше життя, досліджується міське середовище у даному контексті. Також стрічка містить цикл бесід із провідними дизайнерами сучасності щодо специфіки їхньої роботи, творчого процесу та естетичної складової шрифтів.


Українською мовою озвучено студією Омікрон спеціально для HURTOM.COM


Тривалість: 01:20:43
Якість: 1080p
Відео:
кодек:
розмір кадру: 1920x1080
бітрейт: 11,2 Мб/с

Аудіо # 1:
мова: українська | Омікрон
переклад: багатоголосий закадровий
кодек: 2.0
бітрейт: 448 кб/с

Аудіо # 2:
мова: англійська
переклад: оригінал
кодек: 2.0
бітрейт: 448 кб/с

Субтитри # 1:
мова: українська
тип: програмні (м'які)
формат: *.srt

Субтитри # 2:
мова: англійська
тип: програмні (м'які)
формат: *.srt

Скріншоти








Звіт Info

Format :
Format version : Version 2
File size : 6.81 GiB
Duration : 1 h 20 min
Overall bit rate : 12.1 Mb/s
Encoded date : UTC 2017-05-12 21:26:46
Writing application : mkvmerge v2.9.0 ('Moanin'') built on May 22 2009 17:46:31
Writing library : libebml v0.7.7 + libmatroska v0.8.1

Video
ID : 1
Format : AVC
Format/Info : Advanced Video Codec
Format profile : [email protected]
Format settings, CABAC : Yes
Format settings, ReFrames : 4 frames
Codec ID : V_MPEG4/ISO/AVC
Duration : 1 h 20 min
Bit rate : 11.2 Mb/s
Width : 1 920 pixels
Height : 1 080 pixels
Display aspect ratio : 16:9
Frame rate mode : Constant
Frame rate : 23.976 (24000/1001) FPS
Original frame rate : 23.976 (23976/1000) FPS
Color space : YUV
Chroma subsampling : 4:2:0
Bit depth : 8 bits
Scan type : Progressive
Bits/(Pixel*Frame) : 0.225
Stream size : 6.17 GiB (91%)
Writing library : core 100 r1659 57b2e56
Encoding settings : cabac=1 / ref=4 / deblock=1:0:0 / analyse=0x3:0x133 / me=umh / subme=7 / psy=1 / psy_rd=1.00:0.00 / mixed_ref=1 / me_range=16 / chroma_me=1 / trellis=1 / 8x8dct=1 / cqm=0 / deadzone=21,11 / fast_pskip=0 / chroma_qp_offset=-2 / threads=12 / sliced_threads=0 / nr=0 / decimate=1 / interlaced=0 / constrained_intra=0 / bframes=3 / b_pyramid=2 / b_adapt=1 / b_bias=0 / direct=1 / weightb=1 / open_gop=0 / weightp=2 / keyint=250 / keyint_min=25 / scenecut=40 / intra_refresh=0 / rc_lookahead=40 / rc=2pass / mbtree=1 / bitrate=11180 / ratetol=1.0 / qcomp=0.60 / qpmin=10 / qpmax=51 / qpstep=4 / cplxblur=20.0 / qblur=0.5 / ip_ratio=1.40 / aq=1:1.00
Language : English
Default : Yes
Forced : No

Audio #1
ID : 2
Format : AC-3
Format/Info : Audio Coding 3
Mode extension : CM (complete main)
Format settings, Endianness : Big
Codec ID : A_AC3
Duration : 1 h 20 min
Bit rate mode : Constant
Bit rate : 448 kb/s
Channel(s) : 2 channels
Channel positions : Front: L R
Sampling rate : 48.0 kHz
Frame rate : 31.250 FPS (1536 spf)
Compression mode : Lossy
Stream size : 259 MiB (4%)
Title : MVO Omikron studio for Hurtom.com
Language : Ukrainian
Default : Yes
Forced : No

Audio #2
ID : 3
Format : AC-3
Format/Info : Audio Coding 3
Mode extension : CM (complete main)
Format settings, Endianness : Big
Codec ID : A_AC3
Duration : 1 h 20 min
Bit rate mode : Constant
Bit rate : 448 kb/s
Channel(s) : 2 channels
Channel positions : Front: L R
Sampling rate : 48.0 kHz
Frame rate : 31.250 FPS (1536 spf)
Compression mode : Lossy
Stream size : 259 MiB (4%)
Language : English
Default : No
Forced : No

Text #1
ID : 4
Format : UTF-8
Codec ID : S_TEXT/UTF8
Codec ID/Info : UTF-8 Plain Text
Language : Ukrainian
Default : No
Forced : No

Text #2
ID : 5
Format : UTF-8
Codec ID : S_TEXT/UTF8
Codec ID/Info : UTF-8 Plain Text
Language : English
Default : No
Forced : No


Авторський реліз (завантажувати можна без реєстрації)
 Трекер:    Зареєстрований   

Завантажити / скачати фільм українською



відео для новачків



 Зареєстрований:   2017-05-18 19:26
 Розмір:   6.81 GB 
 Оцінка фільму:   10/10 (Голосів: 2)
   
EvGaS 
Відео Гуртом - підтримка та поширення
Відео Гуртом - підтримка та поширення


З нами з: 27.02.12
Востаннє: 28.05.17
Повідомлень: 2867

2017-05-22 15:55  
Якщо ви не типограф, то ризикуєте переглянути 70 хвилин історій смертельної нудьги від дизайнерів, про те як вони користувалися іншими шрифтами, але натрапили у спробах на всюдисущу гельветику, і відтоді усім доводять, що усі шрифти — відстій, гельветика — маст хев.

Серйозно. Більше години вам будуть розповідати який класний шрифт. Один. Майже ніяких інших. Шрифт. Просто один шрифт. Більше години.

igor911 
Відео Гуртом
Відео Гуртом


З нами з: 18.01.08
Востаннє: 29.05.17
Повідомлень: 6792

2017-05-22 16:21  
EvGaS написано:
який класний шрифт. Один. Майже ніяких інших. Шрифт. Просто один шрифт. Більше години.

так, треба терміново замовляти https://toloka.to/t81976, щоб додали цей чудодійний шрифт у редактор на Толоку Happy

EvGaS 
Відео Гуртом - підтримка та поширення
Відео Гуртом - підтримка та поширення


З нами з: 27.02.12
Востаннє: 28.05.17
Повідомлень: 2867

2017-05-22 16:52  
igor911, і прибрати усі інші, бо то єресь.
Ваш часовий пояс: GMT + 2 Години

Нова тема   Відповісти