Гельветика / Helvetica (2007) 720p Ukr/Eng | Sub Ukr/Eng

Нові коментарі

Нова тема   Відповісти
Автор Повідомлення
Omikron 
VIP


З нами з: 03.01.12
Востаннє: 20.07.17
Повідомлень: 313

2017-05-18 19:23  
Гельветика / Helvetica (2007) 720p Ukr/Eng | Sub Ukr/Eng

Гельветика / Helvetica (2007) 720p Ukr/Eng | Sub Ukr/Eng


Жанр: документальний
Країна: Велика Британія



Кінокомпанія: Veer, Swiss Dots
Режисер: Ґарі Гаствіт / Gary Hustwit
У фільмі знімались: Манфред Шульц / Manfred Schulz, Массімо Віньєллі / Massimo Vignelli, Рік Пойнор / Rick Poynor, Вім Кроувел / Wim Crouwel, Метью Картер / Matthew Carter, Альфред Гоффманн / Alfred Hoffmann та інші

Сюжет:
Незалежна документальна стрічка на тему типографіки та графічного дизайну. На прикладі шрифта Гельветика, якому 2007 року виповнилося 50 років, у стрічці розглядається вплив шрифтів на наше життя, досліджується міське середовище у даному контексті. Також стрічка містить цикл бесід із провідними дизайнерами сучасності щодо специфіки їхньої роботи, творчого процесу та естетичної складової шрифтів.


Українською мовою озвучено студією Омікрон спеціально для HURTOM.COM


Тривалість: 01:20:43
Якість: 720p
Відео:
кодек:
розмір кадру: 1280x720
бітрейт: 4 869 кб/с

Аудіо # 1:
мова: українська | Омікрон
переклад: багатоголосий закадровий
кодек: 2.0
бітрейт: 448 кб/с

Аудіо # 2:
мова: англійська
переклад: оригінал
кодек: 2.0
бітрейт: 448 кб/с

Субтитри # 1:
мова: українська
тип: програмні (м'які)
формат: *.srt

Субтитри # 2:
мова: англійська
тип: програмні (м'які)
формат: *.srt

Скріншоти







Звіт Info

Format :
Format version : Version 2
File size : 3.25 GiB
Duration : 1 h 20 min
Overall bit rate : 5 768 kb/s
Encoded date : UTC 2017-05-12 21:35:50
Writing application : mkvmerge v2.9.0 ('Moanin'') built on May 22 2009 17:46:31
Writing library : libebml v0.7.7 + libmatroska v0.8.1

Video
ID : 1
Format : AVC
Format/Info : Advanced Video Codec
Format profile : [email protected]
Format settings, CABAC : Yes
Format settings, ReFrames : 8 frames
Codec ID : V_MPEG4/ISO/AVC
Duration : 1 h 20 min
Bit rate : 4 869 kb/s
Width : 1 280 pixels
Height : 720 pixels
Display aspect ratio : 16:9
Frame rate mode : Constant
Frame rate : 23.976 (24000/1001) FPS
Color space : YUV
Chroma subsampling : 4:2:0
Bit depth : 8 bits
Scan type : Progressive
Bits/(Pixel*Frame) : 0.220
Stream size : 2.68 GiB (82%)
Writing library : core 59 r839M 27c3071
Encoding settings : cabac=1 / ref=8 / deblock=1:-3:-3 / analyse=0x3:0x133 / me=umh / subme=6 / me-prepass=0 / brdo=1 / mixed_ref=1 / me_range=16 / chroma_me=1 / trellis=0 / 8x8dct=1 / cqm=2 / deadzone=7,7 / chroma_qp_offset=0 / threads=6 / nr=0 / decimate=1 / mbaff=0 / fgo=4 / bframes=3 / b_pyramid=1 / b_adapt=1 / b_bias=0 / direct=1 / wpredb=1 / bime=1 / keyint=250 / keyint_min=25 / scenecut=40(pre) / rc=2pass / bitrate=4869 / ratetol=1.0 / rceq='blurCplx^(1-qComp)' / qcomp=1.00 / qpmin=10 / qpmax=51 / qpstep=4 / cplxblur=20.0 / qblur=0.5 / ip_ratio=1.40 / pb_ratio=1.20 / aq=2:1.00
Language : English
Default : Yes
Forced : No

Audio #1
ID : 2
Format : AC-3
Format/Info : Audio Coding 3
Mode extension : CM (complete main)
Format settings, Endianness : Big
Codec ID : A_AC3
Duration : 1 h 20 min
Bit rate mode : Constant
Bit rate : 448 kb/s
Channel(s) : 2 channels
Channel positions : Front: L R
Sampling rate : 48.0 kHz
Frame rate : 31.250 FPS (1536 spf)
Compression mode : Lossy
Stream size : 259 MiB (8%)
Title : MVO Omikron studio for Hurtom.com
Language : Ukrainian
Default : Yes
Forced : No

Audio #2
ID : 3
Format : AC-3
Format/Info : Audio Coding 3
Mode extension : CM (complete main)
Format settings, Endianness : Big
Codec ID : A_AC3
Duration : 1 h 20 min
Bit rate mode : Constant
Bit rate : 448 kb/s
Channel(s) : 2 channels
Channel positions : Front: L R
Sampling rate : 48.0 kHz
Frame rate : 31.250 FPS (1536 spf)
Compression mode : Lossy
Stream size : 259 MiB (8%)
Language : English
Default : No
Forced : No

Text #1
ID : 4
Format : UTF-8
Codec ID : S_TEXT/UTF8
Codec ID/Info : UTF-8 Plain Text
Language : Ukrainian
Default : No
Forced : No

Text #2
ID : 5
Format : UTF-8
Codec ID : S_TEXT/UTF8
Codec ID/Info : UTF-8 Plain Text
Language : English
Default : No
Forced : No


Авторський реліз (завантажувати можна без реєстрації)
 Трекер:    Зареєстрований   

Завантажити / скачати фільм українською



відео для новачків



 Зареєстрований:   2017-05-18 19:23
 Розмір:   3.25 GB 
 Оцінка фільму:   9.3/10 (Голосів: 4)
   
Ваш часовий пояс: GMT + 2 Години

Нова тема   Відповісти