Правила сексу 2: Хеппіенд / Happy Endings (2005) 1080p Ukr/Eng | Sub Eng

Нові коментарі

Нова тема   Відповісти
Автор Повідомлення
Babamin 
Частий відвідувач


З нами з: 29.12.15
Востаннє: 20.10.17
Повідомлень: 33

2017-05-17 18:31  
Правила сексу 2: Хеппіенд / Happy Endings (2005) 1080p Ukr/Eng | Sub Eng



Немає правил без винятків


Жанр: комедія, драма, музичний, трилер
Країна: США



Кінокомпанія: Hughes Entertainment, Warner Bros. Pictures
Режисер: Джон Рус
Актори: Ліза Кудроу, Стів Куган, Джессі Бредфорд, Боббі Каннавале, Меггі Джілленхол, Джейсон Ріттер, Том Арнольд, Девід Саткліфф, Сара Кларк, Лора Дерн

Сюжет:
10 паралельних історій про дивацтва любові. Одна з новел присвячена батьку і синові, які зустрічаються з однією і тією ж жінкою. Інша про дівчину, яка віддала свою дитину на усиновлення, а потім зустріла людину, яка стверджує, що знає, де тепер її нащадок. Дві лесбіянки скористалися послугами друга-гея для зачаття дитяти і тепер говорять, що нічого не вийшло, але їх дворічний син такий схожий на нього…


Тривалість: 02:12:52
Якість: 1080p (Amazon)

Відео:
кодек:
розмір кадру: 1920 х 816
бітрейт: 12,4 Мб/с

Аудіо # 1:
мова: українська
переклад: багатоголосий закадровий
кодек: 5.1
бітрейт: 448 кб/с

Аудіо # 2:
мова: англійська
переклад: оригінал
кодек: 5.1
бітрейт: 448 кб/с

Субтитри:
мова: англійська (SDH)
тип: програмні (м'які)
формат: *.srt
Info:
General
Complete name : Happy.Endings.2005.AMZN..1080p.ukr.eng -Hurtom.
Format :
Format version : Version 4 / Version 2
File size : 12.3 GiB
Duration : 2 h 12 min
Overall bit rate mode : Variable
Overall bit rate : 13.3 Mb/s
Movie name : Happy Endings (2005) [AMAZON 1080p] ukr/eng -Hurtom
Encoded date : UTC 2017-05-17 14:13:18
Writing application : mkvmerge v11.0.0 ('Alive') 64bit
Writing library : libebml v1.3.4 + libmatroska v1.4.5

Video
ID : 1
Format : AVC
Format/Info : Advanced Video Codec
Format profile : [email protected]
Format settings, CABAC : Yes
Format settings, ReFrames : 4 frames
Codec ID : V_MPEG4/ISO/AVC
Duration : 2 h 12 min
Bit rate mode : Variable
Bit rate : 12.4 Mb/s
Maximum bit rate : 15.0 Mb/s
Width : 1 920 pixels
Height : 816 pixels
Display aspect ratio : 2.35:1
Frame rate mode : Constant
Frame rate : 23.976 (24000/1001) FPS
Color space : YUV
Chroma subsampling : 4:2:0
Bit depth : 8 bits
Scan type : Progressive
Bits/(Pixel*Frame) : 0.329
Stream size : 11.5 GiB (93%)
Title : Happy.Endings.2005.Amazon..1080p
Writing library : core 148 r2623 d5b2374
Encoding settings : cabac=1 / ref=4 / deblock=1:-1:-1 / analyse=0x3:0x133 / me=umh / subme=9 / psy=1 / psy_rd=1.00:0.15 / mixed_ref=1 / me_range=24 / chroma_me=1 / trellis=2 / 8x8dct=1 / cqm=0 / deadzone=21,11 / fast_pskip=1 / chroma_qp_offset=-3 / threads=25 / lookahead_threads=4 / sliced_threads=0 / nr=150 / decimate=1 / interlaced=0 / bluray_compat=0 / constrained_intra=0 / bframes=8 / b_pyramid=2 / b_adapt=2 / b_bias=0 / direct=3 / weightb=1 / open_gop=0 / weightp=2 / keyint=120 / keyint_min=61 / scenecut=0 / intra_refresh=0 / rc_lookahead=120 / rc=crf / mbtree=1 / crf=18.0 / qcomp=0.60 / qpmin=0 / qpmax=69 / qpstep=4 / vbv_maxrate=15000 / vbv_bufsize=31250 / crf_max=0.0 / nal_hrd=vbr / filler=0 / ip_ratio=1.40 / aq=3:1.00
Language : English
Default : Yes
Forced : No
Color range : Limited
Color primaries : BT.709
Transfer characteristics : BT.709
Matrix coefficients : BT.709

Audio #1
ID : 2
Format : AC-3
Format/Info : Audio Coding 3
Mode extension : CM (complete main)
Format settings, Endianness : Big
Codec ID : A_AC3
Duration : 2 h 12 min
Bit rate mode : Constant
Bit rate : 448 kb/s
Channel(s) : 6 channels
Channel positions : Front: L C R, Side: L R, LFE
Sampling rate : 48.0 kHz
Frame rate : 31.250 FPS (1536 spf)
Bit depth : 16 bits
Compression mode : Lossy
Stream size : 426 MiB (3%)
Title : Так Треба Продакшн на замовлення Int West Distribution
Language : Ukrainian
Default : Yes
Forced : No

Audio #2
ID : 3
Format : AC-3
Format/Info : Audio Coding 3
Mode extension : CM (complete main)
Format settings, Endianness : Big
Codec ID : A_AC3
Duration : 2 h 12 min
Bit rate mode : Constant
Bit rate : 448 kb/s
Channel(s) : 6 channels
Channel positions : Front: L C R, Side: L R, LFE
Sampling rate : 48.0 kHz
Frame rate : 31.250 FPS (1536 spf)
Bit depth : 16 bits
Compression mode : Lossy
Stream size : 426 MiB (3%)
Title : R5
Language : English
Default : No
Forced : No

Text
ID : 4
Format : UTF-8
Codec ID : S_TEXT/UTF8
Codec ID/Info : UTF-8 Plain Text
Duration : 2 h 8 min
Bit rate : 70 b/s
Count of elements : 2606
Stream size : 66.7 KiB (0%)
Title : SDH
Language : English
Default : No
Forced : No
Скріншоти:









Подяка пану urij546724 за доріжку
Зведення звуку: Babamin


 Трекер:    Зареєстрований   

Завантажити / скачати фільм українською



відео для новачків



 Зареєстрований:   2017-05-17 18:31
 Розмір:   12.32 GB 
 Оцінка фільму:   10/10 (Голосів: 4)
   
Інші релізи
respect14 
VIP


З нами з: 26.01.11
Востаннє: 22.10.17
Повідомлень: 487

2017-05-18 15:51  
2-ий скрін це щоб людей заманити)
Ваш часовий пояс: GMT + 2 Години

Нова тема   Відповісти