Зникнення Харухі Судзумії / Suzumiya Haruhi no Shoushitsu / 涼宮ハルヒの消失 (2010) 1080p Ukr/Jap | Sub Ukr

Нові коментарі

Нова тема   Відповісти
Автор Повідомлення
hetzendorf 
Відео Гуртом - підтримка та поширення
Відео Гуртом - підтримка та поширення


З нами з: 23.07.15
Востаннє: 23.08.17
Повідомлень: 404

2017-05-17 00:12  
Зникнення Харухі Судзумії / Suzumiya Haruhi no Shoushitsu / 涼宮ハルヒの消失 (2010) 1080p Ukr/Jap | Sub Ukr

Зникнення Харухі Судзумії / Suzumiya Haruhi no Shoushitsu / 涼宮ハルヒの消失 (2010) 1080p Ukr/Jap | Sub Ukr


Жанр: Комедія, Драма, Містика, Надприродне, Романтика, Школа
Країна: Японія



9.39 (4856 голосів)

Кінокомпанія: Kadokawa Pictures, Kadokawa Shoten, KlockWorx, Kyoto Animation, Lantis
Режисер: Тацуя Ішіхара (Tatsuya Ishihara), Ясухіро Такемото (Yasuhiro Takemoto)
Ролі озвучують: Айя Хірано (Aya Hirano), Томокадзу Суґіта (Tomokazu Sugita), Мінорі Чіхара (Minori Chihara), Юко Ґото (Yûko Gotô), Дайсуке Оно (Daisuke Ono), Нацуко Куватані (Natsuko Kuwatani), Юкі Мацуока (Yuki Matsuoka), Мінору Шіраіші (Minoru Shiraishi), Меґумі Мацумото (Megumi Matsumoto), Саяка Аокі (Sayaka Aoki)

Сюжет:
Фільм є продовженням телесеріалу «Меланхолія Харухі Судзумії», з сюжетом якого тісно пов'язаний. За сюжетом «Зникнення», Кьон — член шкільного гуртка «Команда SOS», організованого Харухі, — в один грудневий день виявляє, що світ за ніч повністю змінився: зокрема, гуртка більше не існує, і інші учасники його не впізнають.


Тривалість: 2:41:47
Якість:
Відео:
кодек:
розмір кадру: 1920 х 1080
бітрейт: 5 370 кб/с

Аудіо # 1:
мова: українська
переклад: багатоголосий закадровий
кодек: FLAC 2.0
бітрейт: 480 кб/с

Аудіо # 2:
мова: японська
переклад: оригінал
кодек: FLAC 5.1
бітрейт: 1140 кб/с

Джерело озвучення:


Субтитри:
мова: українська
тип: програмні (м'які)
формат: *.ass
Info
General
Unique ID : 320048420547147978922161806349679928585 (0xF0C7156BF542DFB946EAA3C2137B2509)
Complete name : Suzumiya_Haruhi_no_Shoushitsu_1080p_Hi10p_Ukr_UAMAX.
Format :
Format version : Version 4 / Version 2
File size : 7.90 GiB
Duration : 2 h 41 min
Overall bit rate mode : Variable
Overall bit rate : 6 993 kb/s
Movie name : [NanoAlchemist] Suzumiya Haruhi no Shoushitsu [ 1920x1080 FLAC]
Encoded date : UTC 2017-05-16 19:37:55
Writing application : mkvmerge v8.8.0 ('Wind at my back') 32bit
Writing library : libebml v1.3.3 + libmatroska v1.4.4

Video
ID : 1
Format : AVC
Format/Info : Advanced Video Codec
Format profile : High [email protected]
Format settings, CABAC : Yes
Format settings, ReFrames : 12 frames
Codec ID : V_MPEG4/ISO/AVC
Duration : 2 h 41 min
Bit rate : 5 370 kb/s
Width : 1 920 pixels
Height : 1 080 pixels
Display aspect ratio : 16:9
Frame rate mode : Constant
Frame rate : 23.976 (24000/1001) FPS
Color space : YUV
Chroma subsampling : 4:2:0
Bit depth : 10 bits
Scan type : Progressive
Bits/(Pixel*Frame) : 0.108
Stream size : 6.07 GiB (77%)
Writing library : core 129 r2230kMod 1cffe9f
Encoding settings : cabac=1 / ref=12 / deblock=1:-2:-2 / analyse=0x3:0x133 / me=umh / subme=11 / psy=1 / fade_compensate=0.00 / psy_rd=0.90:0.00 / mixed_ref=1 / me_range=32 / chroma_me=1 / trellis=2 / 8x8dct=1 / cqm=0 / deadzone=21,11 / fast_pskip=0 / chroma_qp_offset=-2 / threads=6 / lookahead_threads=1 / sliced_threads=0 / nr=0 / decimate=0 / interlaced=0 / bluray_compat=0 / constrained_intra=0 / bframes=8 / b_pyramid=2 / b_adapt=2 / b_bias=0 / direct=1 / weightb=1 / open_gop=0 / weightp=2 / keyint=250 / keyint_min=23 / scenecut=40 / intra_refresh=0 / rc=crf / mbtree=0 / crf=14.9000 / qcomp=0.70 / qpmin=0 / qpmax=34 / qpstep=4 / ip_ratio=1.40 / pb_ratio=1.30 / aq=1:0.90
Language : Japanese
Default : No
Forced : No
Color range : Limited
Matrix coefficients : BT.709

Audio #1
ID : 2
Format : FLAC
Format/Info : Free Lossless Audio Codec
Codec ID : A_FLAC
Duration : 2 h 41 min
Bit rate mode : Variable
Bit rate : 480 kb/s
Channel(s) : 2 channels
Channel positions : Front: L R
Sampling rate : 48.0 kHz
Frame rate : 10.417 FPS (4608 spf)
Bit depth : 16 bits
Stream size : 556 MiB (7%)
Title : Ukr Flac 2ch
Language : Ukrainian
Default : Yes
Forced : No

Audio #2
ID : 3
Format : FLAC
Format/Info : Free Lossless Audio Codec
Codec ID : A_FLAC
Duration : 2 h 41 min
Bit rate mode : Variable
Bit rate : 1 140 kb/s
Channel(s) : 6 channels
Channel positions : Front: L C R, Side: L R, LFE
Sampling rate : 48.0 kHz
Frame rate : 11.719 FPS (4096 spf)
Bit depth : 16 bits
Stream size : 1.29 GiB (16%)
Title : Jpn Flac 6ch
Writing library : libFLAC 1.2.1 (UTC 2007-09-17)
Language : Japanese
Default : No
Forced : No

Text
ID : 4
Format : ASS
Codec ID : S_TEXT/ASS
Codec ID/Info : Advanced Sub Station Alpha
Duration : 2 h 41 min
Bit rate : 175 b/s
Count of elements : 2243
Compression mode : Lossless
Stream size : 207 KiB (0%)
Title : Укр. повні+написи+пісні by Gedet
Language : Ukrainian
Default : Yes
Forced : No
Скріншоти











Джерело:
Ролі озвучували: Rise, Emeri, Sonata, Anubis, Nisenkotana, Korman, Kinatan, Nesquik, Ray.
Робота зі звуком: Ray
Переклад: Gedet
Постер: Пан Олександр
Подяка за звукову доріжку: Ray

Особиста оцінка: 10 — божественний фільм про Богиню


Авторський реліз (завантажувати можна без реєстрації)
 Трекер:    Зареєстрований   

Завантажити / скачати аніме українською



відео для новачків



 Зареєстрований:   2017-05-17 00:12
 Розмір:   7.9 GB 
 Оцінка аніме:   8.4/10 (Голосів: 7)
   
hetzendorf 
Відео Гуртом - підтримка та поширення
Відео Гуртом - підтримка та поширення


З нами з: 23.07.15
Востаннє: 23.08.17
Повідомлень: 404

2017-05-17 00:25  
Харухі вкотре стало нудно, тож вона змусила озвучити фільм про себе українською (нарешті!) й мене уперше в житті зібрати .-шку та викласти мій перший на Гуртомі реліз. Відчуваю, що наробив ряд помилок, тож прошу мене не сильно копати, принаймні не так, як Кьона у цьому фільмі.
Ліхтарник 
VIP


З нами з: 16.09.14
Востаннє: 23.08.17
Повідомлень: 627

2017-05-17 13:27  
hetzendorf
Додай посилання на мій реліз якщо не шкода

Цитата:

Ліхтарник 
VIP


З нами з: 16.09.14
Востаннє: 23.08.17
Повідомлень: 627

2017-05-17 18:21  
hetzendorf
Дякую! Happy

Твілек 
Новенький


З нами з: 13.04.11
Востаннє: 23.08.17
Повідомлень: 1

2017-05-17 21:49  
Щиро дякую за реліз. Це чудове аніме, з неймовірною увагою до дрібниць, гарними композиційними та художніми знахідками, та чудовим сюжетом. Як на мене, це чудова адаптація ранобе, яка не тільки передає атмосферу та стиль першоджерела, ай має власні знахідки і свою тональність історії. Я дуже радий, що тепер є нагода в котре повернутся до холодного ранку, сімнадцятого грудня....
ccharodey 
Новенький


З нами з: 22.07.16
Востаннє: 23.08.17
Повідомлень: 23

2017-07-19 22:15  
А де взяти окремо Субтитри? Не хочу знов качати. Вмію сам робити Субтитри але не маю перекладу там де мене цікаво(нема перекладу)
hetzendorf 
Відео Гуртом - підтримка та поширення
Відео Гуртом - підтримка та поширення


З нами з: 23.07.15
Востаннє: 23.08.17
Повідомлень: 404

2017-07-19 23:05  
ccharodey
Це те, що я колись ще з ex'a скачав:
https://mega.nz/#!2cpSDBDC!OMHnhjjAk7ge6v2PiPz-Mt-MxkZyqfcraEBBP3jFaTs
Сподіваюсь, пан Gedet не буде проти -_^

Ваш часовий пояс: GMT + 2 Години

Нова тема   Відповісти