Всередині великої чорнобильської гробниці / Inside Chernobyl's Mega Tomb (2016) 720p Eng | Sub Ukr/Eng

Нові коментарі

Нова тема   Відповісти
Автор Повідомлення
zest13 
Відео Гуртом - субтитрування
Відео Гуртом - субтитрування


З нами з: 28.09.15
Востаннє: 17.10.17
Повідомлень: 20

2017-05-16 23:03  
Всередині великої чорнобильської гробниці / Inside Chernobyl's Mega Tomb (2016) 720p Eng | Sub Ukr/Eng

Всередині великої чорнобильської гробниці / Inside Chernobyl's Mega Tomb (2016) 720p Eng | Sub Ukr/Eng


Жанр: документальний
Країна: Велика Британія

Телеканал / кіностудія: British Broadcasting Corporation (BBC)
Режисер: Мартін Горст (Martin Gorst)
Сюжет:
Документальний фільм "Всередині великої чорнобильської гробниці" супроводжує побудову безпрецедентної 36-тисячотонної сталевої споруди, що має накрити рештки атомної електростанції, зруйнованої у 1986-му році в Чорнобильській катастрофі. Фільм показує міжнародну команду інженерів у їхньому змаганні збудувати нову споруду до того, як первинний бетонний саркофаг - наспіх збудована споруда, що накриває реактор - обвалиться. Тимчасовий саркофаг, збудований лише на 30 років, зараз руйнується, наражаючи світ на ризик ще одного викиду радіоактивного пилу. Рівень радіації унеможливлює побудову нового укриття безпосередньо над старим реактором, тому інженери зводять нову мегаспоруду - вищу за Біг-Бен та втричі важчу за Ейфелеву вежу - осторонь і потім матимуть задачу пересунути найбільший у світі рухомий наземний об'єкт на нове місце над старим реактором.


Тривалість: 59:00
Якість: 720p
Відео:
кодек:
розмір кадру: 1280 x 720
бітрейт: 2 305 кб/с

Аудіо:
мова: англійська
переклад: оригінал
кодек: 2.0
бітрейт: 93.5 кб/с

Субтитри:
мова: українська
тип: програмні (м'які)
формат: *.srt
переклад: zest13

Субтитри:
мова: англійська
тип: програмні (м'які)
формат: *.srt
Info
General
Complete name : D:\Movies\Inside Chernobyl's Mega Tomb\Inside Chernobyl's Mega Tomb (2016) [Eng][Sub.Ukr.Eng]\Inside Chernobyl's Mega Tomb.mp4
Format : MPEG-4
Format profile : Base Media
Codec ID : isom
File size : 1 015 MiB
Duration : 59mn 0s
Overall bit rate mode : Variable
Overall bit rate : 2 404 Kbps
Collection : Inside Chernobyl's Mega Tomb
Season : 1
Album : Inside Chernobyl's Mega Tomb
Album/Performer : BBC TV
Part : 1
Part/Position : 1
Track name : Inside Chernobyl's Mega Tomb
Track name/Position : 1
Grouping : Factual,Science & Nature,Documentaries
Performer : BBC Four
Composer : BBC iPlayer
Genre : Factual
ContentType : TV Show
Description : The construction of a structure to entomb the ruins of the Chernobyl nuclear power plant.
Recorded date : UTC 2016-12-21 21:00:00
Tagged date : UTC 2016-12-21 23:21:46
Writing application : Lavf57.25.100
Copyright : 2016 British Broadcasting Corporation, all rights reserved
Cover : Yes
Lyrics : Documentary which follows the construction of a trailblazing 36,000-tonne steel structure to entomb the ruins of the nuclear power plant destroyed in the 1986 Chernobyl disaster. It films close up with the team of international engineers as they race to build the new structure before Chernobyl's original concrete sarcophagus - the hastily built structure that covers the reactor - collapses. / / Built to last just thirty years, the temporary sarcophagus is now crumbling, putting the world at risk of another release of radioactive dust. Radiation levels make it impossible for workers to build the new shelter directly over the old reactor, so engineers are erecting the new megastructure - taller than the tower of Big Ben and three times heavier than the Eiffel Tower - to one side and will then face the challenge of sliding the largest object ever moved on land into place over the old reactor. / / EPISODE / http://www.bbc.co.uk/iplayer/episode/b08650s6
Comment : The construction of a structure to entomb the ruins of the Chernobyl nuclear power plant.
LongDescription : Documentary which follows the construction of a trailblazing 36,000-tonne steel structure to entomb the ruins of the nuclear power plant destroyed in the 1986 Chernobyl disaster. It films close up with the team of international engineers as they race to build the new structure before Chernobyl's original concrete sarcophagus - the hastily built structure that covers the reactor - collapses. / / Built to last just thirty years, the temporary sarcophagus is now crumbling, putting the world at risk of another release of radioactive dust. Radiation levels make it impossible for workers to build the new shelter directly over the old reactor, so engineers are erecting the new megastructure - taller than the tower of Big Ben and three times heavier than the Eiffel Tower - to one side and will then face the challenge of sliding the largest object ever moved on land into place over the old reactor.
HDVideo : Yes
Part_ID : s01e01
TVNetworkName : BBC Four

Video
ID : 1
Format : AVC
Format/Info : Advanced Video Codec
Format profile : [email protected]
Format settings, CABAC : Yes
Format settings, ReFrames : 2 frames
Codec ID : avc1
Codec ID/Info : Advanced Video Coding
Duration : 59mn 0s
Bit rate mode : Variable
Bit rate : 2 305 Kbps
Maximum bit rate : 3 500 Kbps
Width : 1 280 pixels
Height : 720 pixels
Display aspect ratio : 16:9
Frame rate mode : Constant
Frame rate : 25.000 fps
Color space : YUV
Chroma subsampling : 4:2:0
Bit depth : 8 bits
Scan type : Progressive
Bits/(Pixel*Frame) : 0.100
Stream size : 973 MiB (96%)

Audio
ID : 2
Format :
Format/Info : Advanced Audio Codec
Format profile : LC
Codec ID : 40
Duration : 58mn 59s
Bit rate mode : Constant
Bit rate : 93.5 Kbps
Channel(s) : 2 channels
Channel positions : Front: L R
Sampling rate : 48.0 KHz
Compression mode : Lossy
Stream size : 39.4 MiB (4%)
Скріншоти
Джерело:
Особиста оцінка: 9 - давно не бачив настільки якісне кіно


Золотий реліз (завантажене не впливає на рейтинг)
 Трекер:    Зареєстрований   

Завантажити / скачати торрент



відео для новачків



 Зареєстрований:   2017-05-17 18:53
 Розмір:   1015 MB 
 Оцінка:   9.8/10 (Голосів: 27)
   
zest13 
Відео Гуртом - субтитрування
Відео Гуртом - субтитрування


З нами з: 28.09.15
Востаннє: 17.10.17
Повідомлень: 20

2017-05-17 18:54  
Виправлено невелику помилку у перекладі, прохання перезавантажити.
ZASE 
Відео Гуртом - підтримка та поширення
Відео Гуртом - підтримка та поширення


З нами з: 14.04.09
Востаннє: 21.10.17
Повідомлень: 320

2017-05-17 19:35  
Дякую за реліз!
Ятаган-1 
Свій


З нами з: 02.04.15
Востаннє: 31.08.17
Повідомлень: 50

2017-06-07 00:33  
Якось дуже непомітно для українців пройшла ця без перебільшення визначна подія, було б непогано якби й ми зняли фільм про це.
Нажаль ми замало переймаємось подібними питаннями. Добре що на гуртом хоча б фільм виклали). За що і дякую, фільм сподобався, правда жаль що без перекладу.
10/10

ILLUSIONUA 
Новенький


З нами з: 29.03.11
Востаннє: 12.10.17
Повідомлень: 1

2017-07-08 00:53  
32:11 - хто ще звернув увагу? Happy
Ваш часовий пояс: GMT + 2 Години

Нова тема   Відповісти