Касл (Сезон 1) / Castle (Season 1) (2009) 1080p Ukr/Eng | Sub Eng

Нові коментарі

Нова тема   Відповісти
Останній раз роздавалося Pegass (2017-05-27)
Автор Повідомлення
Pegass 
VIP


З нами з: 17.12.09
Востаннє: 29.05.17
Повідомлень: 437

2017-05-16 22:47  
Касл (Сезон 1) / Castle (Season 1) (2009) 1080p Ukr/Eng | Sub Eng

Касл (Сезон 1) / Castle (Season 1) (2009) 1080p Ukr/Eng | Sub Eng


Жанр: детектив, драма, комедія
Країна: США



Кінокомпанія: Beacon Pictures, Experimental Pictures, ABC Studios
Режисер: Роб Боуман, Томас Дж. Райт, Брайан Спайсер, Джон Терлески
Актори: Стана Катіч, Натан Філліон, Джон Уертас, Шеймус Девер, Моллі С. Куінн, Сьюзен Саллівен, Тамала Джонс

Сюжет:
Успішний Нью-йоркський письменник Річард Касл отримує дозвіл від мера попрацювати в детективному відділі, де він може користуватися документацією і, можливо, відшукає сюжети для своїх романів. Касл зближується з детективами і дуже скоро стає другом блискучої Кейт Бекетт, яка відрізняється здатністю думати як злочинець і неоціненна в роботі з найбільш важкими злочинами. Тим часом, найбільша небезпека ховається в розкішній квартирі Касла, під загрозою опиняється його дочка Алексіс


Тривалість: 1 серія: 43 хвилини (цілком серій: 10)
Перелік серій
Castle. Season 1, Episode 1. Flowers for Your Grave
Castle. Season 1, Episode 2. Nanny McDead
Castle. Season 1, Episode 3. Hedge Fund Homeboys
Castle. Season 1, Episode 4. Hell Hath No Fury
Castle. Season 1, Episode 5. A Chill Goes Through Her Veins
Castle. Season 1, Episode 6. Always Buy Retail
Castle. Season 1, Episode 7. Home Is Where the Heart Stops
Castle. Season 1, Episode 8. Ghosts
Castle. Season 1, Episode 9. Little Girl Lost
Castle. Season 1, Episode 10. A Death in the Family
Якість: 1080p [Amazon Video]
Відео:
кодек:
розмір кадру: 1920 х 1080
бітрейт: ~ 12.5 Мб/с

Аудіо # 1:
мова: українська
переклад: професійний дубльований
кодек: 2.0
бітрейт: 192 кб/с

Аудіо # 2:
мова: англійська
переклад: оригінал
кодек: 5.1
бітрейт: 640 кб/с

Субтитри:
мова: англійська
тип: програмні (м'які)
формат: *.srt
Info

General
Unique ID : 236441546238629290194472668193941886314 (0xB1E0FC43299E6492B4753095A490156A)
Format :
Format version : Version 4 / Version 2
File size : 4.10 GiB
Duration : 43 min 13 s
Overall bit rate mode : Variable
Overall bit rate : 13.6 Mb/s
Movie name : Castle S01E01 (2009) AMZN 1080p [Ukr.Eng Sub.Eng] [Hurtom]
Encoded date : UTC 2017-05-17 17:29:33
Writing application : mkvmerge v6.1.0 ('Old Devil') built on Mar 2 2013 14:32:37
Writing library : libebml v1.3.0 + libmatroska v1.4.0
Cover : Yes
Attachments : Cover.jpg

Video
ID : 1
Format : AVC
Format/Info : Advanced Video Codec
Format profile : [email protected]
Format settings, CABAC : Yes
Format settings, ReFrames : 4 frames
Codec ID : V_MPEG4/ISO/AVC
Duration : 43 min 13 s
Bit rate mode : Variable
Bit rate : 12.5 Mb/s
Maximum bit rate : 15.0 Mb/s
Width : 1 920 pixels
Height : 1 080 pixels
Display aspect ratio : 16:9
Frame rate mode : Constant
Frame rate : 23.976 (24000/1001) FPS
Color space : YUV
Chroma subsampling : 4:2:0
Bit depth : 8 bits
Scan type : Progressive
Bits/(Pixel*Frame) : 0.251
Stream size : 3.77 GiB (92%)
Title : Castle S01E01 (2009) AMZN 1080p [Ukr.Eng Sub.Eng] [Hurtom]
Writing library : core 148 r2623 d5b2374
Encoding settings : cabac=1 / ref=4 / deblock=1:-1:-1 / analyse=0x3:0x133 / me=umh / subme=9 / psy=1 / psy_rd=1.00:0.15 / mixed_ref=1 / me_range=24 / chroma_me=1 / trellis=2 / 8x8dct=1 / cqm=0 / deadzone=21,11 / fast_pskip=1 / chroma_qp_offset=-3 / threads=34 / lookahead_threads=5 / sliced_threads=0 / nr=150 / decimate=1 / interlaced=0 / bluray_compat=0 / constrained_intra=0 / bframes=8 / b_pyramid=2 / b_adapt=2 / b_bias=0 / direct=3 / weightb=1 / open_gop=0 / weightp=2 / keyint=120 / keyint_min=61 / scenecut=0 / intra_refresh=0 / rc_lookahead=120 / rc=crf / mbtree=1 / crf=18.0 / qcomp=0.60 / qpmin=0 / qpmax=69 / qpstep=4 / vbv_maxrate=15000 / vbv_bufsize=31250 / crf_max=0.0 / nal_hrd=vbr / filler=0 / ip_ratio=1.40 / aq=3:1.00
Language : English
Default : Yes
Forced : No
Color range : Limited
Color primaries : BT.709
Transfer characteristics : BT.709
Matrix coefficients : BT.709

Audio #1
ID : 2
Format : AC-3
Format/Info : Audio Coding 3
Format settings, Endianness : Big
Codec ID : A_AC3
Duration : 43 min 13 s
Bit rate mode : Constant
Bit rate : 192 kb/s
Channel(s) : 2 channels
Channel positions : Front: L R
Sampling rate : 48.0 kHz
Frame rate : 31.250 FPS (1536 spf)
Bit depth : 16 bits
Compression mode : Lossy
Stream size : 59.4 MiB (1%)
Title : Dub | 1+1 | 2.0 | 192 kb/s
Language : Ukrainian
Service kind : Complete Main
Default : Yes
Forced : No

Audio #2
ID : 3
Format : E-AC-3
Format/Info : Enhanced Audio Coding 3
Format settings, Endianness : Big
Codec ID : A_EAC3
Duration : 43 min 13 s
Bit rate mode : Constant
Bit rate : 640 kb/s
Channel(s) : 6 channels
Channel positions : Front: L C R, Side: L R, LFE
Sampling rate : 48.0 kHz
Frame rate : 187.500 FPS (256 spf)
Compression mode : Lossy
Stream size : 198 MiB (5%)
Title : Original
Language : English
Service kind : Complete Main
Default : No
Forced : No

Text
ID : 4
Format : UTF-8
Codec ID : S_TEXT/UTF8
Codec ID/Info : UTF-8 Plain Text
Title : Original
Language : English
Default : No
Forced : No
Скріншоти













Джерело:
Опис взято з релізу https://toloka.to/t53717
За запис дякую xslim, BILko
За синхронізацію BILko
Особиста оцінка: 10 - без зайвих вагань рекомендую всім!


Срібний реліз (на рейтинг впливає 50% завантаженого)
 Трекер:    Зареєстрований   

Завантажити / скачати серіал українською



відео для новачків



 Зареєстрований:   2017-05-18 00:40
 Розмір:   38.39 GB 
 Оцінка серіалу:   10/10 (Голосів: 2)
   
stalkerock 
Новенький


З нами з: 21.09.14
Востаннє: 28.05.17
Повідомлень: 1

2017-05-16 23:20  
Класний серіал, але його треба було закінчувати 5 сезоном.
Patriot_ukr 
VIP


З нами з: 06.04.15
Востаннє: 28.05.17
Повідомлень: 1704

2017-05-16 23:32  
Pegass, Зробите у HD - https://toloka.to/t14270?
Lil`Antoni 
VIP


З нами з: 25.02.12
Востаннє: 28.05.17
Повідомлень: 339

2017-05-17 13:19  
Класнйи серіал, а скільки всього сезонів перевили на українську мову?
І скільки ви плануєте викласти в гарній якості, бачу т є перших два до 720 ))

Pegass 
VIP


З нами з: 17.12.09
Востаннє: 29.05.17
Повідомлень: 437

2017-05-17 13:58  
...
Lil`Antoni 
VIP


З нами з: 25.02.12
Востаннє: 28.05.17
Повідомлень: 339

2017-05-17 14:22  
Pegass
От і мені цікаво скільки сезонів укр.
Так як всі сезони пердивився вже. Так 1080 можна знайти в любій озвучці зараз, тільки питання української лишилося.
Я про ці два сезони і писав Happy

bot 
робот


З нами з: 30.09.07
Востаннє: 26.05.05
Повідомлень: 16931

2017-05-18 00:18  
Тему перенесено з Анонси релізів до форуму Серіали в HD


Pegass

Ваш часовий пояс: GMT + 2 Години

Нова тема   Відповісти