Автобан / Collide (2016) Remux 1080p Ukr/Eng | Sub Eng

Нові коментарі

Нова тема   Відповісти
Автор Повідомлення
Anonymous 







2017-05-16 11:46  
Автобан / Collide (2016) Remux 1080p Ukr/Eng | Sub Eng


Жанр: бойовик, трилер
Країна: Велика Британія, Німеччина



Кінокомпанія: Silver Pictures, Automatik Entertainment, 42, DMG
Режисер: Ерен Кріві / Eran Creevy
Актори: Ніколас Голт / Nicholas Hoult, Фелісіті Джонс / Felicity Jones, Ентоні Гопкінс / Anthony Hopkins, Бен Кінґслі / Ben Kingsley, Клеменс Шик / Clemens Schick, Марван Кензарі / Marwan Kenzari, Надіа Хілкер / Nadia Hilker, Олександр Йованович / Aleksandar Jovanovic, Джонні Пальмьєро / Johnny Palmiero, Майкл Епп / Michael Epp та інші

Сюжет:
Турист зі США Кейсі Штайн (Ніколас Голт) та його дівчина (Фелісіті Джонс) подорожують Європою. Дівчина потребує дорогої медичної допомоги, і, щоб роздобути гроші, Кейсі погоджується викрасти наркотики для ексцентричного злочинця Герана (Бен Кінгслі). Але навряд чи це сподобається місцевому наркокоролю Хагену (Ентоні Гопкінс). Мимоволі хлопець опиняється в центрі кримінальної війни. Тепер, щоб врятувати життя коханої, Кейсі змушений брати участь у смертоносних перегонах автобанами Німеччини.
Офіційний український трейлер:

Рейтинг MPAA: PG-13 - дітям до 13 років перегляд не бажаний
Вікова категорія: 12+
Тривалість: 01:38:42
Якість: Remux
Відео:
кодек:
розмір кадру: 1920 х 1080
бітрейт: 38223 кб/с

Аудіо # 1:
мова: українська
переклад: професійний дубльований | ААА-sound
кодек: 5.1
бітрейт: 384 кб/с
Інформація про озвучення
Переклад: Юлія Когут
Режисер: Олександр Єфімов
Ролі озвучили: Андрій Федінчик, Наталя Денисенко, Андрій Твердак, Андрій Альохін, Дмитро Завадський, Катерина Буцька, Олександр Ігнатуша, Ярослав Чорненький, Кирило Нікітенко та іншіі
Фільм дубльовано студією ААА-sound у 2017 році на замовлення компанії "Кіноманія"
Аудіо # 2:
мова: англійська
переклад: оригінал
кодек: -HD MA 5.1
бітрейт: 2454 кб/с

Субтитри # 1:
мова: англійська
тип: програмні (м'які)
формат: srt

Збережено оригінальні розділи, як на Blu-ray
Info
Код:
Complete name               : Collide (2016) [Ukr,Eng sub.Eng] Remux 1080p [Hurtom].
Format                      :
Format version              : Version 4 / Version 2
File size                   : 28.1 GiB
Duration                    : 1 h 38 min
Overall bit rate mode       : Variable
Overall bit rate            : 40.8 Mb/s
Movie name                  : Автобан / Collide (2016) [Ukr,Eng sub.Eng] Remux 1080p [Hurtom]
Released date               : 2016
Cover                       : Yes
Comment                     : http://www.imdb.com/title/tt2126235/
Attachments                 : cover.jpg
ARTIST                      : Ніколас Голт / Nicholas Hoult, Фелісіті Джонс / Felicity Jones, Ентоні Гопкінс / Anthony Hopkins, Бен Кінґслі / Ben Kingsley, Клеменс Шик / Clemens Schick, Марван Кензарі / Marwan Kenzari, Надіа Хілкер / Nadia Hilker, Олександр Йованович / Aleksandar Jovanovic, Джонні Пальмьєро / Johnny Palmiero, Майкл Епп / Michael Epp та інші
DIRECTOR                    : Ерен Кріві / Eran Creevy
GENRE                       : бойовик, трилер
SYNOPSIS                    : Турист зі США Кейсі Штайн (Ніколас Голт) та його дівчина (Фелісіті Джонс) подорожують Європою. Дівчина потребує дорогої медичної допомоги, і, щоб роздобути гроші, Кейсі погоджується викрасти наркотики для ексцентричного злочинця Герана (Бен Кінгслі). Але навряд чи це сподобається місцевому наркокоролю Хагену (Ентоні Гопкінс). Мимоволі хлопець опиняється в центрі кримінальної війни. Тепер, щоб врятувати життя коханої, Кейсі змушений брати участь у смертоносних перегонах автобанами Німеччини.
Url                         : https://toloka.to/t81959

Video
ID                          : 1
Format                      : AVC
Format/Info                 : Advanced Video Codec
Format profile              : [email protected]
Format settings, CABAC      : Yes
Format settings, ReFrames   : 4 frames
Codec ID                    : V_MPEG4/ISO/AVC
Duration                    : 1 h 38 min
Bit rate mode               : Variable
Bit rate                    : 38.0 Mb/s
Maximum bit rate            : 38.5 Mb/s
Width                       : 1 920 pixels
Height                      : 1 080 pixels
Display aspect ratio        : 16:9
Frame rate mode             : Constant
Frame rate                  : 23.976 (24000/1001) FPS
Color space                 : YUV
Chroma subsampling          : 4:2:0
Bit depth                   : 8 bits
Scan type                   : Progressive
Bits/(Pixel*Frame)          : 0.764
Stream size                 : 26.2 GiB (93%)
Title                       : Автобан / Collide (2016) Remux 1080p [JPN Blu-ray, HDClub]
Language                    : English
Default                     : Yes
Forced                      : No
Color range                 : Limited
Color primaries             : BT.709
Transfer characteristics    : BT.709
Matrix coefficients         : BT.709

Audio #1
ID                          : 2
Format                      : AC-3
Format/Info                 : Audio Coding 3
Format settings, Endianness : Big
Codec ID                    : A_AC3
Duration                    : 1 h 38 min
Bit rate mode               : Constant
Bit rate                    : 384 kb/s
Channel(s)                  : 6 channels
Channel positions           : Front: L C R, Side: L R, LFE
Sampling rate               : 48.0 kHz
Frame rate                  : 31.250 FPS (1536 spf)
Bit depth                   : 16 bits
Compression mode            : Lossy
Stream size                 : 271 MiB (1%)
Title                       : Dub [AAA-sound, iTunes] 5.1 384 Kbps [HDClub]
Language                    : Ukrainian
Service kind                : Complete Main
Default                     : Yes
Forced                      : Yes

Audio #2
ID                          : 3
Format                      :
Format/Info                 : Digital Theater Systems
Format profile              : MA / Core
Mode                        : 16
Format settings, Endianness : Big
Codec ID                    : A_DTS
Duration                    : 1 h 38 min
Bit rate mode               : Variable / Constant
Bit rate                    : 2 454 kb/s / 1 509 kb/s
Channel(s)                  : 6 channels
Channel positions           : Front: L C R, Side: L R, LFE
Sampling rate               : 48.0 kHz
Frame rate                  : 93.750 FPS (512 spf)
Bit depth                   : 16 bits
Compression mode            : Lossless / Lossy
Stream size                 : 1.69 GiB (6%)
Title                       : Original, -HD MA 5.1 2454 Kbps
Language                    : English
Default                     : No
Forced                      : No

Text
ID                          : 4
Format                      : UTF-8
Codec ID                    : S_TEXT/UTF8
Codec ID/Info               : UTF-8 Plain Text
Duration                    : 1 h 29 min
Bit rate                    : 39 b/s
Count of elements           : 766
Stream size                 : 25.5 KiB (0%)
Title                       : Eng full
Language                    : English
Default                     : No
Forced                      : No

Menu
00:00:00.000                : en:Chapter 1
00:10:29.711                : en:Chapter 2
00:19:13.943                : en:Chapter 3
00:26:06.565                : en:Chapter 4
00:35:39.052                : en:Chapter 5
00:46:35.708                : en:Chapter 6
00:58:15.199                : en:Chapter 7
01:10:06.577                : en:Chapter 8
01:18:05.845                : en:Chapter 9
01:28:32.765                : en:Chapter 10


Джерело: &


Золотий реліз (завантажене не впливає на рейтинг)
 Трекер:    Зареєстрований   

Завантажити / скачати фільм українською



відео для новачків



 Зареєстрований:   2017-05-16 16:04
 Розмір:   28.15 GB 
 Оцінка фільму:   4.5/10 (Голосів: 19)
   
Інші релізи
   Автобан / Collide (2016) AVC Ukr/Eng 11FrYkT  7 / 0   2.35 GB   2017-05-16 21:53 
   Автобан / Collide (2016) 1080p Ukr/Eng | Sub Eng Electroz  4 / 1   7.58 GB   2017-05-16 20:45 
   Автобан / Collide (2016) 720p Ukr/Eng igor911  10 / 0   6 GB   2017-05-16 16:35 
   Автобан / Collide (2016) Electroz  32 / 4   1.42 GB   2017-05-16 01:17 
bot 
робот


З нами з: 30.09.07
Востаннє: 26.05.05
Повідомлень: 17363

2017-05-16 16:03  
Тему перенесено з Анонси релізів до форуму Фільми в HD


igor911

uaxpasha 
Свій


З нами з: 05.08.12
Востаннє: 17.08.17
Повідомлень: 140

2017-05-16 17:37  
Якісний переклад, гарний набір акторів а фільм навіть не на один раз. повне лайно.
Шкода і Гопкінса і Кінгслі

Ваш часовий пояс: GMT + 2 Години

Нова тема   Відповісти