Турборейнджери / Turbo: A Power Rangers Movie (1997) 720p Ukr/Eng

Нові коментарі

Нова тема   Відповісти
Автор Повідомлення
Anonymous 







2017-05-15 23:57  
Турборейнджери / Turbo: A Power Rangers Movie (1997) 720p Ukr/Eng

Турборейнджери / Turbo: A Power Rangers Movie (1997) 720p Ukr/Eng


Жанр: пригодницький, наукова фантастика, сімейний, екшн, фентезі, трилер
Країна: США, Японія



Кінокомпанія: Saban Entertainment, Toei Company, Twentieth Century Fox Film Corporation
Режисер: Шукі Леві, Девід Віннінґ (Shuki Levy, David Winning)
Актори: Джон Сіматон (Jon Simanton), Стів Карбенас (Steve Cardenas), Джейсон Девід Френк (Jason David Frank), Скотт Фішер (Scott Fisher), Гіларі Шепард (Hilary Shepard) та інші.

Сюжет:
Зловісна іншопланетянка Діватокс вирішує випустити на свободу темні сили Маліґора, потужного і лютого створіння, заточеного в жерлі вулкана на чарівному острові.
До острова можна дістатися тільки через повний небезпеки Трикутник Немезіс і лише за допомогою магічних сил чарівника Леріґота. А сам чарівник Леріґот відправляється на Землю в пошуках людей, здатних протистояти Діватокс і зруйнувати її злісні плани - це Турборейнджери. Вони з готовністю відправляються назустріч небезпечним пригодам! ...


Тривалість: 01:39:33
Якість: 720p
Відео:
кодек:
розмір кадру: 1280 х 720
бітрейт: 5845 кб/с

Аудіо # 1:
мова: українська
переклад: двоголосий закадровий
кодек: 2.0
бітрейт: 192 кб/с

Аудіо # 2:
мова: англійська
переклад: оригінал
кодек: 5.1
бітрейт: 448 кб/с

Джерело озвучення:
Info
General
Unique ID : 191065558699460711646441985283088158690 (0x8FBDE35979B660908599A987EB238FE2)
Complete name : E:\Turbo.A.Power.Rangers.Movie.1997..720p.
Format :
Format version : Version 4 / Version 2
File size : 4.51 GiB
Duration : 1h 39mn
Overall bit rate : 6 486 Kbps
Encoded date : UTC 2017-05-15 21:27:57
Writing application : mkvmerge v8.8.0 ('Wind at my back') 64bit
Writing library : libebml v1.3.3 + libmatroska v1.4.4
DURATION : 01:39:32.192000000
NUMBER_OF_FRAMES : 186631
NUMBER_OF_BYTES : 143332608
_STATISTICS_WRITING_APP : mkvmerge v8.8.0 ('Wind at my back') 64bit
_STATISTICS_WRITING_DATE_UTC : 2017-05-15 21:27:57
_STATISTICS_TAGS : BPS DURATION NUMBER_OF_FRAMES NUMBER_OF_BYTES

Video
ID : 1
Format : AVC
Format/Info : Advanced Video Codec
Format profile : [email protected]
Format settings, CABAC : Yes
Format settings, ReFrames : 9 frames
Codec ID : V_MPEG4/ISO/AVC
Duration : 1h 39mn
Bit rate : 5 845 Kbps
Width : 1 280 pixels
Height : 720 pixels
Display aspect ratio : 16:9
Frame rate mode : Constant
Frame rate : 23.976 fps
Color space : YUV
Chroma subsampling : 4:2:0
Bit depth : 8 bits
Scan type : Progressive
Bits/(Pixel*Frame) : 0.265
Stream size : 3.97 GiB (88%)
Title : Vudu HDX
Writing library : core 110 r1804 e89c4cf
Encoding settings : cabac=1 / ref=9 / deblock=1:-3:-3 / analyse=0x3:0x133 / me=tesa / subme=10 / psy=1 / psy_rd=1.00:0.00 / mixed_ref=1 / me_range=32 / chroma_me=1 / trellis=2 / 8x8dct=1 / cqm=0 / deadzone=21,11 / fast_pskip=0 / chroma_qp_offset=-2 / threads=6 / sliced_threads=0 / nr=0 / decimate=1 / interlaced=0 / constrained_intra=0 / bframes=16 / b_pyramid=2 / b_adapt=2 / b_bias=0 / direct=3 / weightb=1 / open_gop=0 / weightp=2 / keyint=250 / keyint_min=23 / scenecut=40 / intra_refresh=0 / rc_lookahead=60 / rc=2pass / mbtree=1 / bitrate=5845 / ratetol=1.0 / qcomp=0.60 / qpmin=0 / qpmax=51 / qpstep=4 / cplxblur=20.0 / qblur=0.5 / ip_ratio=1.40 / aq=1:1.00
Language : English
Default : Yes
Forced : No
DURATION : 01:39:32.842000000
NUMBER_OF_FRAMES : 143205
NUMBER_OF_BYTES : 4362874801
_STATISTICS_WRITING_APP : mkvmerge v8.8.0 ('Wind at my back') 64bit
_STATISTICS_WRITING_DATE_UTC : 2017-05-15 21:27:57
_STATISTICS_TAGS : BPS DURATION NUMBER_OF_FRAMES NUMBER_OF_BYTES

Audio #1
ID : 2
Format : AC-3
Format/Info : Audio Coding 3
Mode extension : CM (complete main)
Format settings, Endianness : Big
Codec ID : A_AC3
Duration : 1h 39mn
Bit rate mode : Constant
Bit rate : 192 Kbps
Channel(s) : 2 channels
Channel positions : Front: L R
Sampling rate : 48.0 KHz
Bit depth : 16 bits
Compression mode : Lossy
Stream size : 137 MiB (3%)
Default : Yes
Forced : Yes

Audio #2
ID : 3
Format : AC-3
Format/Info : Audio Coding 3
Mode extension : CM (complete main)
Format settings, Endianness : Big
Codec ID : A_AC3
Duration : 1h 39mn
Bit rate mode : Constant
Bit rate : 448 Kbps
Channel(s) : 6 channels
Channel positions : Front: L C R, Side: L R, LFE
Sampling rate : 48.0 KHz
Bit depth : 16 bits
Compression mode : Lossy
Delay relative to video : 15ms
Stream size : 319 MiB (7%)
Title : оригинал (английский)
Language : English
Default : No
Forced : No

Menu
00:00:00.000 : en:Main titles
00:01:46.167 : en:Hunting Lerigot
00:03:48.834 : en:Rocky tries too hard
00:05:58.001 : en:Divatox is angry
00:08:09.001 : en:Lerigot lands on Earth
00:10:30.501 : en:Visiting Rocky
00:18:48.335 : en:Danger in the jungle
00:25:47.169 : en:Underwater trouble
00:35:34.503 : en:Turbo Zords
00:39:08.670 : en:A new Ranger
00:41:45.837 : en:The Ghost Galleon
00:50:36.337 : en:The Nemesis Triangle
01:00:42.337 : en:Land!
01:07:56.039 : en:To the temple
01:10:58.706 : en:Kicking into action
01:12:06.206 : en:Feeding time
01:22:13.040 : en:Turbo hardware
01:26:47.540 : en:Taking care of business
01:31:21.874 : en:Angel Grove scores
01:34:02.041 : en:End titles
01:39:26.875 : en:Chapter 21
Скріншоти









Джерело: &
Українська доріжка - robotron005, Hulk1987
Особиста оцінка: 6 - тільки через ностальгію по серіалу, що йшов раніше.


Срібний реліз (на рейтинг впливає 50% завантаженого)
 Трекер:    Зареєстрований   

Завантажити / скачати фільм українською



відео для новачків



 Зареєстрований:   2017-05-15 23:57
 Розмір:   4.51 GB 
 Оцінка фільму:   2.4/10 (Голосів: 13)
   
Інші релізи
igor911 
Відео Гуртом
Відео Гуртом


З нами з: 18.01.08
Востаннє: 16.12.17
Повідомлень: 8507

2017-05-16 23:09  
Anonymous написано:
Країна: США

треба дописати Японію

ІМДБ від іншого фільму, заміни

Anonymous написано:
комедія
треба замінити на "фентезі, трилер,"

Додано через 1 годину 40 хвилин 45 секунд:

Anonymous написано:
сай -фай

це українською?

імдб не виправлене

igor911 
Відео Гуртом
Відео Гуртом


З нами з: 18.01.08
Востаннє: 16.12.17
Повідомлень: 8507

2017-05-17 06:31  
На кнопці імдб вказаний вдівічі більший рейтинг від іншого фільму, треба замінити також.
Ваш часовий пояс: GMT + 2 Години

Нова тема   Відповісти