Моє дівчисько / My Sassy Girl (2008) 720p Ukr/Eng

Нові коментарі

Нова тема   Відповісти
Автор Повідомлення
Anonymous 







2017-05-16 00:35  
Моє дівчисько / My Sassy Girl (2008) 720p Ukr/Eng

Моє дівчисько / My Sassy Girl (2008) 720p Ukr/Eng

Жанр: мелодрама, комедія
Країна: США



Кінокомпанія: CJ Entertainment
Режисер: Янн Семюель / Yann Samuell
Актори: Еліша Катберт / Elisha Cuthbert, Джессі Бредфорд / Jesse Bradford, Остін Басіс / Austin Basis, Вільям Абаді / William Abadie

Сюжет:
Чарлі - молодий і сором'язливий студент коледжу, який ніколи не був ні в кого закоханий. Його життя різко змінюється, коли він допомагає красивій дівчині Джордан вибратися з важкого душевного стану. У подяку Джордан наважується на заручини з Чарлі, який у свою чергу навіть ще і не уявляє, скільки випробувань йому належить пройти, щоб виграти серце цієї непростої молодої особи ...


Тривалість: 01:35:24
Якість: 720p
Відео:
кодек:
розмір кадру: 1280 х 720
бітрейт: 3899 кб/с

Аудіо # 1:
мова: українська
переклад: двоголосий закадровий
кодек: 2.0
бітрейт: 192 кб/с

Аудіо # 2:
мова: англійська
переклад: оригінал
кодек: 5.1
бітрейт: 384 кб/с

Джерело озвучення:
Info
General
Unique ID : 184181514647039448862747760704443484987 (0x8A9011C5E93A87B4804293A1B7118B3B)
Complete name : E:\My.Sassy.Girl.2008.720p..Ukr.Eng.
Format :
Format version : Version 4 / Version 2
File size : 3.04 GiB
Duration : 1h 35mn
Overall bit rate : 4 566 Kbps
Movie name : My Sassy Girl (2008) - Release for HDCLUB
Encoded date : UTC 2017-05-15 21:22:48
Writing application : mkvmerge v8.8.0 ('Wind at my back') 64bit
Writing library : libebml v1.3.3 + libmatroska v1.4.4
DURATION : 01:35:24.736000000
NUMBER_OF_FRAMES : 178898
NUMBER_OF_BYTES : 274787328
_STATISTICS_WRITING_APP : mkvmerge v8.8.0 ('Wind at my back') 64bit
_STATISTICS_WRITING_DATE_UTC : 2017-05-15 21:22:48
_STATISTICS_TAGS : BPS DURATION NUMBER_OF_FRAMES NUMBER_OF_BYTES

Video
ID : 1
Format : AVC
Format/Info : Advanced Video Codec
Format profile : [email protected]
Format settings, CABAC : No
Format settings, ReFrames : 2 frames
Codec ID : V_MPEG4/ISO/AVC
Duration : 1h 35mn
Bit rate : 3 899 Kbps
Width : 1 280 pixels
Height : 720 pixels
Display aspect ratio : 16:9
Frame rate mode : Constant
Frame rate : 23.976 fps
Color space : YUV
Chroma subsampling : 4:2:0
Bit depth : 8 bits
Scan type : Progressive
Bits/(Pixel*Frame) : 0.176
Stream size : 2.60 GiB (85%)
Title : My Sassy Girl (2008) - Release for HDCLUB
Language : English
Default : Yes
Forced : No
Color range : Limited
Color primaries : BT.709
Transfer characteristics : BT.709
Matrix coefficients : BT.709

Audio #1
ID : 2
Format : AC-3
Format/Info : Audio Coding 3
Mode extension : CM (complete main)
Format settings, Endianness : Big
Codec ID : A_AC3
Duration : 1h 35mn
Bit rate mode : Constant
Bit rate : 192 Kbps
Channel(s) : 2 channels
Channel positions : Front: L R
Sampling rate : 48.0 KHz
Bit depth : 16 bits
Compression mode : Lossy
Stream size : 131 MiB (4%)
Title : Двоголосий закадровий, 1+1
Language : Ukrainian
Default : Yes
Forced : Yes

Audio #2
ID : 3
Format : AC-3
Format/Info : Audio Coding 3
Mode extension : CM (complete main)
Format settings, Endianness : Big
Codec ID : A_AC3
Duration : 1h 35mn
Bit rate mode : Constant
Bit rate : 384 Kbps
Channel(s) : 6 channels
Channel positions : Front: L C R, Side: L R, LFE
Sampling rate : 48.0 KHz
Bit depth : 16 bits
Compression mode : Lossy
Stream size : 262 MiB (8%)
Title : English
Language : English
Default : No
Forced : No

Menu
00:00:00.000 : :Main Titles
00:02:25.000 : :Live, Charlie, Live!
00:07:48.000 : :Definitely Not Nice
00:13:53.000 : :A Reckless Phase
00:19:08.000 : :Lifelong Dream
00:23:05.000 : :Rose And Jack
00:25:59.000 : Wide grinr. Dad
00:28:30.000 : :Left Foot, Right Foot
00:31:32.000 : :The Best Birthday Ever
00:37:35.000 : :Time Travel
00:41:09.000 : :Model Employee
00:44:51.000 : :Pros And Cons
00:47:06.000 : :A Single Red Rose
00:51:10.000 : :Surprisingly Deep
00:54:21.000 : :A Good Friend
00:57:40.000 : :Ten Rules To Follow
01:01:54.000 : :Taking A Chance
01:06:56.000 : :Buried Letters
01:10:46.000 : :One Long Year
01:13:34.000 : :All The Same Things
01:19:59.000 : :The Old Man
01:25:24.000 : :Destiny
01:27:46.000 : :Building A Bridge
01:30:51.000 : :End Titles
Скріншоти





Джерело: &
Українська доріжка - MAKAPOHHIK - запис з ТБ, Andick - зведення. Український постер - Тирік.
Особиста оцінка: 8 - мені сподобалося


 Трекер:    Зареєстрований   

Завантажити / скачати фільм українською



відео для новачків



 Зареєстрований:   2017-05-16 00:35
 Розмір:   3.04 GB 
 Оцінка фільму:   4/10 (Голосів: 15)
   
Інші релізи
   Моє дівчисько / My Sassy Girl (2008) AVC Ukr | Sub Eng DеLight  4 / 0   1.49 GB   2012-08-20 15:35 
   Моє дівчисько / My Sassy Girl (2008) Ukr/Eng Andick  5 / 0   2.01 GB   2010-08-07 13:03 
Electroz 
Відео Гуртом - підтримка та поширення
Відео Гуртом - підтримка та поширення


З нами з: 18.09.14
Востаннє: 21.08.17
Повідомлень: 1492

2017-05-16 00:39  
Anonymous написано:

Це не ріп

Додано через 14 секунд:

Має бути

Ваш часовий пояс: GMT + 2 Години

Нова тема   Відповісти