Автобан / Collide (2016) 720p Ukr/Eng

Нові коментарі

Нова тема   Відповісти
Автор Повідомлення
Anonymous 







2017-05-15 21:57  
Автобан / Collide (2016) 720p Ukr/Eng | Sub Eng



Жанр: бойовик, трилер
Країна: Велика Британія, Німеччина



Кінокомпанія: Silver Pictures, Automatik Entertainment, 42, DMG
Режисер: Ерен Кріві / Eran Creevy
Актори: Ніколас Голт / Nicholas Hoult, Фелісіті Джонс / Felicity Jones, Ентоні Гопкінс / Anthony Hopkins, Бен Кінґслі / Ben Kingsley, Клеменс Шик / Clemens Schick, Марван Кензарі / Marwan Kenzari, Надіа Хілкер / Nadia Hilker, Олександр Йованович / Aleksandar Jovanovic, Джонні Пальмьєро / Johnny Palmiero, Майкл Епп / Michael Epp та інші

Сюжет:
Турист зі США Кейсі Штайн (Ніколас Голт) та його дівчина (Фелісіті Джонс) подорожують Європою. Дівчина потребує дорогої медичної допомоги, і, щоб роздобути гроші, Кейсі погоджується викрасти наркотики для ексцентричного злочинця Герана (Бен Кінгслі). Але навряд чи це сподобається місцевому наркокоролю Хагену (Ентоні Гопкінс). Мимоволі хлопець опиняється в центрі кримінальної війни. Тепер, щоб врятувати життя коханої, Кейсі змушений брати участь у смертоносних перегонах автобанами Німеччини.
Офіційний український трейлер:

Рейтинг MPAA: PG-13 - дітям до 13 років перегляд не бажаний
Вікова категорія: 12+
Тривалість: 01:38:42
Якість: Remux
Відео:
кодек:
розмір кадру: 1280 х 534
бітрейт: 7680 кб/с [crf=17.2]

Аудіо # 1:
мова: українська
переклад: професійний дубльований | ААА-sound
кодек: 5.1
бітрейт: 384 кб/с
Інформація про озвучення
Переклад: Юлія Когут
Режисер: Олександр Єфімов
Ролі озвучили: Андрій Федінчик, Наталя Денисенко, Андрій Твердак, Андрій Альохін, Дмитро Завадський, Катерина Буцька, Олександр Ігнатуша, Ярослав Чорненький, Кирило Нікітенко та іншіі
Фільм дубльовано студією ААА-sound у 2017 році на замовлення компанії "Кіноманія"
Аудіо # 2:
мова: англійська
переклад: оригінал
кодек: 5.1
бітрейт: 640 кб/с

Субтитри # 1:
мова: англійська
тип: програмні (м'які)
формат: srt

Збережено оригінальні розділи, як на Blu-ray
Info
Код:
Complete name               : Collide (2016) [Ukr,Eng sub.Eng] 720p [Hurtom].
Format                      :
Format version              : Version 4 / Version 2
File size                   : 6.00 GiB
Duration                    : 1 h 38 min
Overall bit rate            : 8 704 kb/s
Movie name                  : Автобан / Collide (2016) [Ukr,Eng sub.Eng] 720p [Hurtom]
Released date               : 2016
Cover                       : Yes
Comment                     : http://www.imdb.com/title/tt2126235/
Attachments                 : cover.jpg
ARTIST                      : Ніколас Голт / Nicholas Hoult, Фелісіті Джонс / Felicity Jones, Ентоні Гопкінс / Anthony Hopkins, Бен Кінґслі / Ben Kingsley, Клеменс Шик / Clemens Schick, Марван Кензарі / Marwan Kenzari, Надіа Хілкер / Nadia Hilker, Олександр Йованович / Aleksandar Jovanovic, Джонні Пальмьєро / Johnny Palmiero, Майкл Епп / Michael Epp та інші
DIRECTOR                    : Ерен Кріві / Eran Creevy
GENRE                       : бойовик, трилер
SYNOPSIS                    : Турист зі США Кейсі Штайн (Ніколас Голт) та його дівчина (Фелісіті Джонс) подорожують Європою. Дівчина потребує дорогої медичної допомоги, і, щоб роздобути гроші, Кейсі погоджується викрасти наркотики для ексцентричного злочинця Герана (Бен Кінгслі). Але навряд чи це сподобається місцевому наркокоролю Хагену (Ентоні Гопкінс). Мимоволі хлопець опиняється в центрі кримінальної війни. Тепер, щоб врятувати життя коханої, Кейсі змушений брати участь у смертоносних перегонах автобанами Німеччини.
Url                         : https://toloka.to/t81952

Video
ID                          : 1
Format                      : AVC
Format/Info                 : Advanced Video Codec
Format profile              : [email protected]
Format settings, CABAC      : Yes
Format settings, ReFrames   : 12 frames
Codec ID                    : V_MPEG4/ISO/AVC
Duration                    : 1 h 38 min
Bit rate                    : 7 680 kb/s
Width                       : 1 280 pixels
Height                      : 534 pixels
Display aspect ratio        : 2.40:1
Frame rate mode             : Constant
Frame rate                  : 23.976 (24000/1001) FPS
Color space                 : YUV
Chroma subsampling          : 4:2:0
Bit depth                   : 8 bits
Scan type                   : Progressive
Bits/(Pixel*Frame)          : 0.469
Stream size                 : 5.30 GiB (88%)
Title                       : Автобан / Collide (2016) 720p [ExKinoRay]
Writing library             : core 148 r2597 e86f3a1
Encoding settings           : cabac=1 / ref=12 / deblock=1:-3:-3 / analyse=0x3:0x113 / me=umh / subme=11 / psy=1 / psy_rd=1.00:0.00 / mixed_ref=1 / me_range=32 / chroma_me=1 / trellis=2 / 8x8dct=1 / cqm=0 / deadzone=21,11 / fast_pskip=0 / chroma_qp_offset=-2 / threads=12 / lookahead_threads=3 / sliced_threads=0 / nr=0 / decimate=0 / interlaced=0 / bluray_compat=0 / constrained_intra=0 / bframes=11 / b_pyramid=2 / b_adapt=2 / b_bias=0 / direct=3 / weightb=1 / open_gop=0 / weightp=2 / keyint=240 / keyint_min=24 / scenecut=40 / intra_refresh=0 / rc_lookahead=40 / rc=crf / mbtree=0 / crf=17.2 / qcomp=0.70 / qpmin=0 / qpmax=69 / qpstep=4 / vbv_maxrate=40000 / vbv_bufsize=30000 / crf_max=0.0 / nal_hrd=none / filler=0 / ip_ratio=1.20 / pb_ratio=1.20 / aq=3:0.85
Language                    : English
Default                     : Yes
Forced                      : No

Audio #1
ID                          : 2
Format                      : AC-3
Format/Info                 : Audio Coding 3
Format settings, Endianness : Big
Codec ID                    : A_AC3
Duration                    : 1 h 38 min
Bit rate mode               : Constant
Bit rate                    : 384 kb/s
Channel(s)                  : 6 channels
Channel positions           : Front: L C R, Side: L R, LFE
Sampling rate               : 48.0 kHz
Frame rate                  : 31.250 FPS (1536 spf)
Bit depth                   : 16 bits
Compression mode            : Lossy
Stream size                 : 271 MiB (4%)
Title                       : Dub [AAA-sound, iTunes] 5.1 384 Kbps [HDClub]
Language                    : Ukrainian
Service kind                : Complete Main
Default                     : Yes
Forced                      : Yes

Audio #2
ID                          : 3
Format                      : AC-3
Format/Info                 : Audio Coding 3
Format settings, Endianness : Big
Codec ID                    : A_AC3
Duration                    : 1 h 38 min
Bit rate mode               : Constant
Bit rate                    : 640 kb/s
Channel(s)                  : 6 channels
Channel positions           : Front: L C R, Side: L R, LFE
Sampling rate               : 48.0 kHz
Frame rate                  : 31.250 FPS (1536 spf)
Bit depth                   : 16 bits
Compression mode            : Lossy
Stream size                 : 452 MiB (7%)
Title                       : Original, 5.1 640 Kbps
Language                    : English
Service kind                : Complete Main
Default                     : No
Forced                      : No

Text
ID                          : 4
Format                      : UTF-8
Codec ID                    : S_TEXT/UTF8
Codec ID/Info               : UTF-8 Plain Text
Duration                    : 1 h 29 min
Bit rate                    : 39 b/s
Count of elements           : 766
Stream size                 : 25.5 KiB (0%)
Title                       : Eng full
Language                    : English
Default                     : No
Forced                      : No

Menu
00:00:00.000                : en:00:00:00.000
00:10:29.712                : en:00:10:29.712
00:19:13.944                : en:00:19:13.944
00:26:06.565                : en:00:26:06.565
00:35:39.054                : en:00:35:39.054
00:46:35.710                : en:00:46:35.710
00:58:15.200                : en:00:58:15.200
01:10:06.577                : en:01:10:06.577
01:18:05.848                : en:01:18:05.848
01:28:32.766                : en:01:28:32.766


Джерело: &


 Трекер:    Зареєстрований   

Завантажити / скачати фільм українською



відео для новачків



 Зареєстрований:   2017-05-16 16:35
 Розмір:   6 GB 
 Оцінка фільму:   5.4/10 (Голосів: 23)
   
Інші релізи
   Автобан / Collide (2016) AVC Ukr/Eng 11FrYkT  10 / 0   2.35 GB   2017-05-16 21:53 
   Автобан / Collide (2016) 1080p Ukr/Eng | Sub Eng Electroz  3 / 0   7.58 GB   2017-05-16 20:45 
   Автобан / Collide (2016) Remux 1080p Ukr/Eng | Sub Eng igor911  6 / 0   28.15 GB   2017-05-16 16:04 
   Автобан / Collide (2016) Electroz  41 / 4   1.42 GB   2017-05-16 01:17 
Electroz 
Відео Гуртом - підтримка та поширення
Відео Гуртом - підтримка та поширення


З нами з: 18.09.14
Востаннє: 20.10.17
Повідомлень: 1699

2017-05-15 22:24  
avi
11FrYkT 
Модератор відео


З нами з: 20.02.11
Востаннє: 20.10.17
Повідомлень: 3971

2017-05-15 23:36  
авц
Anonymous 







2017-05-16 12:38  
Pegass написано:
Можливо Remux. якщо потягне ноутбук.

я викладу за пару годин https://toloka.to/t81959

bot 
робот


З нами з: 30.09.07
Востаннє: 26.05.05
Повідомлень: 17702

2017-05-16 16:35  
Тему перенесено з Анонси релізів до форуму Фільми в HD


igor911

Lil`Antoni 
VIP


З нами з: 25.02.12
Востаннє: 14.10.17
Повідомлень: 401

2017-05-16 16:40  
11FrYkT написано:
авц

Коли орінтовно чекати ?
Подивився трейлер не дуже в захваті щоб ще качати 720 : )

Ваш часовий пояс: GMT + 2 Години

Нова тема   Відповісти