MKVToolNix (вирішення проблем)

Нові коментарі

Нова тема   Відповісти
Автор Повідомлення
hudda 
Свій


З нами з: 07.06.09
Востаннє: 24.10.20
Повідомлень: 86

2017-05-15 18:32  
Вітаю.

Хотів вирізати фрагмент з відео (Eurovision 2017 HDTV 1080i TS), але під час муксінгу у MKVToolNix отримав наступну помилку:
Натисніть на зображення для його збільшення, після відкриття у новій вкладці - натисніть ще раз
Info

General
ID : 17185 (0x4321)
Complete name : K:\TORRENTS\Eurosong_Final.1080i.ts
Format : MPEG-TS
File size : 68.4 GiB
Duration : 4h 0mn
Overall bit rate mode : Variable
Overall bit rate : 40.7 Mbps

Video
ID : 512 (0x200)
Menu ID : 1 (0x1)
Format : AVC
Format/Info : Advanced Video Codec
Format profile : High 4:2:[email protected]
Format settings, CABAC : No
Format settings, ReFrames : 4 frames
Codec ID : 27
Duration : 4h 0mn
Bit rate mode : Variable
Bit rate : 35.6 Mbps
Maximum bit rate : 36.9 Mbps
Width : 1 920 pixels
Height : 1 080 pixels
Display aspect ratio : 16:9
Frame rate : 25.000 fps
Color space : YUV
Chroma subsampling : 4:2:2
Bit depth : 8 bits
Scan type : Interlaced
Scan order : Top Field First
Bits/(Pixel*Frame) : 0.687
Stream size : 59.8 GiB (87%)
Color primaries : BT.709
Transfer characteristics : BT.709
Matrix coefficients : BT.709
Color range : Limited

Audio #1
ID : 4112 (0x1010)
Menu ID : 1 (0x1)
Format : MPEG Audio
Format version : Version 1
Format profile : Layer 2
Mode : Dual mono
Codec ID : 3
Duration : 4h 0mn
Bit rate mode : Constant
Bit rate : 384 Kbps
Channel(s) : 2 channels
Sampling rate : 48.0 KHz
Compression mode : Lossy
Delay relative to video : 4ms
Stream size : 660 MiB (1%)
Language : German
Language, more info : Clean effects

Audio #2
ID : 4128 (0x1020)
Menu ID : 1 (0x1)
Format : MPEG Audio
Format version : Version 1
Format profile : Layer 2
Mode : Dual mono
Codec ID : 3
Duration : 4h 0mn
Bit rate mode : Constant
Bit rate : 384 Kbps
Channel(s) : 2 channels
Sampling rate : 48.0 KHz
Compression mode : Lossy
Delay relative to video : 4ms
Stream size : 660 MiB (1%)
Language : German
Language, more info : Clean effects

Audio #3
ID : 4144 (0x1030)
Menu ID : 1 (0x1)
Format : PCM
Format settings, Endianness : Little
Muxing mode : AES3
Codec ID : 6
Duration : 4h 0mn
Bit rate mode : Constant
Bit rate : 1 920 Kbps
Encoded bit rate : 2 304 Kbps
Channel(s) : 2 channels
Sampling rate : 48.0 KHz
Bit depth : 20 bits
Delay relative to video : 34ms
Stream size : 3.22 GiB (5%)
Language : German
Language, more info : Clean effects
Автор релізу додав таку інформацію про цей файл:
Запис з технічного фіда. Перегляд можливий тільки за допомогою комп'ютера (ноутбука).
Подключаєте кабель HDMI до свого екрану і отримуєте прекрасне зображення.
Звукову доріжку DolbyE можливо прослуховувати тільки після перекодування, я її викладу пізніше.

В чому тут проблема - у самому файлі чи у моїй системі?

Система - WinXP SP3, пам'ять - 2 Гб, ATI Radeon HD 5700 (1024 Мб)
Ваш часовий пояс: GMT + 2 Години

Нова тема   Відповісти