Формула 1. Сезон 2017. Етап 05. Гран-Прі Іспанії. Гонка (14.05.2017) HDTV 1080i

Нові коментарі

Нова тема   Відповісти
Останній раз роздавалося zor1 (2020-04-15)
Автор Повідомлення
sergiyko.5 
VIP


З нами з: 25.02.16
Востаннє: 24.10.20
Повідомлень: 3614

2017-05-14 22:38  
Формула 1. Сезон 2017. Етап 05. Гран-Прі Іспанії. Гонка (14.05.2017) HDTV 1080i

Формула 1. Сезон 2017. Етап 05. Гран-Прі Іспанії. Гонка (14.05.2017) HDTV 1080i

Жанр: Формула 1
Телеканал: Setanta Sports+HD

Опис:
Перегони 5-го етапу чемпіонату світу Формули 1 Гран Прі Іспанії.


Тривалість: 01:56:42

Відео: кодек: розмір кадру: 1920 х 1080 бітрейт: 6800 кб/с
Аудіо: мова: українська переклад: оригінал кодек: 2.0 бітрейт: 192 кб/с
Аудіо: мова: інтершум кодек: MP2 2.0 бітрейт: 192 кб/с
Про файл:

General
Unique ID : 245951100958657697031748401659078884998 (0xB9087582471206A98A044891C671BE86)
Complete name : D:\Torrents\SPORT\F1.2017.05.Spain.Race.HDTV.1080i.Ukr.Int.
Format :
Format version : Version 4 / Version 2
File size : 5.86 GiB
Duration : 1h 56mn
Overall bit rate mode : Constant
Overall bit rate : 7 194 Kbps
Movie name : Audio 1 Ukr by sergiyko
Encoded date : UTC 2017-05-14 19:27:48
Writing application : v9.8.0 ('Kuglblids') 64bit
Writing library : libebml v1.3.4 + v1.4.5
DURATION : 01:56:42.096000000
NUMBER_OF_FRAMES : 291754
NUMBER_OF_BYTES : 168050304
_STATISTICS_WRITING_APP : v9.8.0 ('Kuglblids') 64bit
_STATISTICS_WRITING_DATE_UTC : 2017-05-14 19:27:48
_STATISTICS_TAGS : BPS DURATION NUMBER_OF_FRAMES NUMBER_OF_BYTES

Video
ID : 1
Format : AVC
Format/Info : Advanced Video Codec
Format profile : [email protected]
Format settings, CABAC : Yes
Format settings, ReFrames : 3 frames
Codec ID : V_MPEG4/ISO/AVC
Bit rate mode : Constant
Bit rate : 6 860 Kbps
Width : 1 920 pixels
Height : 1 080 pixels
Display aspect ratio : 16:9
Frame rate mode : Variable
Original frame rate : 25.000 fps
Color space : YUV
Chroma subsampling : 4:2:0
Bit depth : 8 bits
Scan type : MBAFF
Scan order : Top Field First
Bits/(Pixel*Frame) : 0.132
Language : English
Default : Yes
Forced : No
Color range : Limited
Color primaries : BT.709
Transfer characteristics : BT.709
Matrix coefficients : BT.709

Audio #1
ID : 2
Format : AC-3
Format/Info : Audio Coding 3
Mode extension : CM (complete main)
Format settings, Endianness : Big
Codec ID : A_AC3
Duration : 1h 56mn
Bit rate mode : Constant
Bit rate : 192 Kbps
Channel(s) : 2 channels
Channel positions : Front: L R
Sampling rate : 48.0 KHz
Compression mode : Lossy
Stream size : 160 MiB (3%)
Language : Ukrainian
Default : Yes
Forced : Yes

Audio #2
ID : 3
Format : MPEG Audio
Format version : Version 1
Format profile : Layer 2
Codec ID : A_MPEG/L2
Codec ID/Hint : MP2
Duration : 1h 56mn
Bit rate mode : Constant
Bit rate : 192 Kbps
Channel(s) : 2 channels
Sampling rate : 48.0 KHz
Compression mode : Lossy
Stream size : 160 MiB (3%)
Default : No
Forced : No
Скріншоти:


Зведення: sergiyko


 Трекер:    Зареєстрований   

Завантажити / скачати торрент



відео для новачків



 Зареєстрований:   2017-05-14 22:38
 Розмір:   5.86 GB 
 Оцінка:   10/10 (Голосів: 4)
   
quick_shot 
Частий відвідувач


З нами з: 30.09.16
Востаннє: 19.10.20
Повідомлень: 25

2017-05-18 06:58  
крута гонка,Феттель всерівно найкращий
Ваш часовий пояс: GMT + 2 Години

Нова тема   Відповісти