Шпигун по сусідству / The Spy Next Door (2010) 1080p Ukr/Eng | Sub Eng

Нові коментарі

Нова тема   Відповісти
Автор Повідомлення
Anonymous 







2017-05-14 17:40  
Шпигун по сусідству / The Spy Next Door (2010) 1080p Ukr/Eng | Sub Eng

Шпигун по сусідству / The Spy Next Door (2010) 1080p Ukr/Eng | Sub Eng


Жанр: екшн, комедія, сімейний
Країна: США



Кінокомпанія: Relativity Media, Robert Simonds Productions, Spy Next Door
Режисер: Брайан Левант / Brian Levant
Актори: Джекі Чан (Jackie Chan), Амбер Валлетта / Amber Valletta, Меделін Керолл / Madeline Carroll, Вілл Шедлі / Will Shadley, Аліна Фоулі / Alina Foley, Маґнус Шевінг / Magnus Scheving, Біллі Рей Сайрус / Billy Ray Cyrus, Джордж Лопез / George Lopez, Катерін Бокер / Katherine Boecher, Міа Сталлард / Mia Stallard, Меверік МакВільямс / Maverick McWilliams, Квінн Мейсон / Quinn Mason, Маргарет Мерфі / Margaret Murphy, Есоді Ґейгер / Esodie Geiger, Аррон Шівер / Arron Shiver

Сюжет:
Режисер Брайан Левант, цей той самий хлопець, якому ми повинні бути вдячні за «Важку дитину 2», «Бетховена» і «Сніжних псів». Його нова стрічка хоч і є варіацією на тему «Лисого няньки» з Віном Дизелем, все-таки багата несподіваними сюжетними поворотами і кумедними ситуаціями. Дивитися як старіючий Джекі Чан намагається впоратися з юними але невгамовними дітьми одне задоволення. Та й правда, застарий вже Джекі для фільмів рівня «Зброя бога», хоча, справедливості заради відзначимо, що комедійні бойовики завжди вдавалися йому.

Чудова смішна комедія про те, як одного разу шпигун доглянув дітьми. Зрозуміло, все дуже утрирувано, але кому цікаво, що насправді шпигунська робота - це постійна метушня з документами?


Тривалість: 01:34:18
Якість: 1080p
Відео:
кодек:
розмір кадру: 1920 х 1080
бітрейт: 12,9 Мб/с

Аудіо # 1:
мова: українська
переклад: багатоголосий закадровий
кодек: 5.1
бітрейт: 448 кб/с
Інформація про озвучення

Фільм перекладено і озвучено на студії Tretyakoff production на замовлення Aurora Distribution
Запис 5.1 з Воля Кіно HD. По ТЕТ транслювали із ідентичним озвученням, але звичайно у стерео.
Аудіо # 2:
мова: англійська
переклад: оригінал
кодек: 5.1
бітрейт: 1509 кб/с

Субтитри:
мова: англійська
тип: програмні (м'які)
формат: *.srt
Info
General
Unique ID : 214209231970934375996617007829020650463 (0xA127328A3A8718CA9C5EF7D48BD92BDF)
Format :
Format version : Version 4 / Version 2
File size : 9.81 GiB
Duration : 1 h 34 min
Overall bit rate : 14.9 Mb/s
Movie name : The Spy Next Door (2010) 1080p [Ukr.Eng Sub.Eng] [Hurtom]
Encoded date : UTC 2017-05-13 22:00:12
Writing application : v6.1.0 ('Old Devil') built on Mar 2 2013 14:32:37
Writing library : libebml v1.3.0 + v1.4.0
Cover : Yes
Attachments : Cover.jpg

Video
ID : 1
Format : AVC
Format/Info : Advanced Video Codec
Format profile : [email protected]
Format settings, CABAC : Yes
Format settings, ReFrames : 4 frames
Codec ID : V_MPEG4/ISO/AVC
Duration : 1 h 34 min
Bit rate : 12.9 Mb/s
Width : 1 920 pixels
Height : 1 080 pixels
Display aspect ratio : 16:9
Frame rate mode : Constant
Frame rate : 23.976 FPS
Color space : YUV
Chroma subsampling : 4:2:0
Bit depth : 8 bits
Scan type : Progressive
Bits/(Pixel*Frame) : 0.260
Stream size : 8.32 GiB (85%)
Title : The Spy Next Door (2010) 1080p [Ukr.Eng Sub.Eng] [Hurtom]
Writing library : core 88 r1471 1144615
Encoding settings : cabac=1 / ref=4 / deblock=1:-3:-3 / analyse=0x3:0x113 / me=umh / subme=10 / psy=1 / psy_rd=1.05:0.10 / mixed_ref=1 / me_range=48 / chroma_me=1 / trellis=2 / 8x8dct=1 / cqm=2 / deadzone=21,11 / fast_pskip=0 / chroma_qp_offset=-2 / threads=12 / sliced_threads=0 / nr=0 / decimate=1 / mbaff=0 / constrained_intra=0 / bframes=3 / b_pyramid=2 / b_adapt=2 / b_bias=0 / direct=3 / wpredb=1 / wpredp=2 / keyint=250 / keyint_min=25 / scenecut=40 / intra_refresh=0 / rc_lookahead=50 / rc=2pass / mbtree=1 / bitrate=12913 / ratetol=2.0 / qcomp=0.70 / qpmin=10 / qpmax=51 / qpstep=4 / cplxblur=20.0 / qblur=0.5 / vbv_maxrate=50000 / vbv_bufsize=50000 / ip_ratio=1.40 / aq=1:1.00
Language : English
Default : Yes
Forced : No

Audio #1
ID : 2
Format : AC-3
Format/Info : Audio Coding 3
Format settings, Endianness : Big
Codec ID : A_AC3
Duration : 1 h 34 min
Bit rate mode : Constant
Bit rate : 448 kb/s
Channel(s) : 6 channels
Channel positions : Front: L C R, Side: L R, LFE
Sampling rate : 48.0 kHz
Frame rate : 31.250 FPS (1536 spf)
Bit depth : 16 bits
Compression mode : Lossy
Stream size : 302 MiB (3%)
Title : MVO | Volya Kino HD / TET | 5.1 | 448 kb/s
Language : Ukrainian
Service kind : Complete Main
Default : Yes
Forced : No

Audio #2
ID : 3
Format :
Format/Info : Digital Theater Systems
Mode : 16
Format settings, Endianness : Big
Codec ID : A_DTS
Duration : 1 h 34 min
Bit rate mode : Constant
Bit rate : 1 509 kb/s
Channel(s) : 6 channels
Channel positions : Front: L C R, Side: L R, LFE
Sampling rate : 48.0 kHz
Frame rate : 93.750 FPS (512 spf)
Bit depth : 24 bits
Compression mode : Lossy
Stream size : 1 018 MiB (10%)
Title : Original
Language : English
Default : No
Forced : No

Text
ID : 4
Format : UTF-8
Codec ID : S_TEXT/UTF8
Codec ID/Info : UTF-8 Plain Text
Title : Original
Language : English
Default : No
Forced : No
Скріншоти


















Джерело: &
За опис дякую Ghost_Rider, AngryBirdsUA та karvai0.
Висловлюю подяку п. slavik_v_z за наданий сирий звук.
За синхронізаціію дякую karvai0
Особиста оцінка: 10 - без зайвих вагань рекомендую всім!

PG - рейтинг стрічки, встановлений Американською асоціацією кінокомпаній

MPAA, англ. Motion Picture Association of America - Американська асоціація кінокомпаній

Рейтинг PG — Parental guidance suggested
Дітям рекомендується дивитися фільм разом з батьками.

Рекомендується присутність батьків. Деякий матеріал, можливо, не підходить для дітей. Даний рейтинг показує, що оцінений фільм може містити деякі сцени, проглядання яких маленькими дітьми може не сподобатися їх батькам. Матеріал, який може бути присутнім у фільмі, повинен бути пояснений дітям перш, ніж їм дозволять відвідати фільм. Явні сексуальні сцени і сцени вживання наркотиків відсутні; нагота, якщо й присутня, то тільки дуже обмежено, жах і насильство не перевищують помірного рівня.


Не забуваємо дякувати!


 Трекер:    Зареєстрований   

Завантажити / скачати фільм українською



відео для новачків



 Зареєстрований:   2017-05-14 17:57
 Розмір:   9.81 GB 
 Оцінка фільму:   8.4/10 (Голосів: 5)
   
Інші релізи
sade 
Новенький


З нами з: 17.03.11
Востаннє: 18.12.18
Повідомлень: 14

2018-03-28 11:06  
Станьте хтось на роздачу...........
don pedro 
Попереджень: 1
Попереджень: 1 


З нами з: 29.06.11
Востаннє: 19.12.18
Повідомлень: 12635

2018-03-28 11:13  
Один з тих фільмів, що марно намагався попередити США про кацапську загрозу ще багато років тому.
merlin_soi 
Новенький


З нами з: 15.02.16
Востаннє: 19.12.18
Повідомлень: 8

2018-09-10 09:27  
Сідери, поверніться, будь ласка.
Залишилось половину фільму докачати.

Ваш часовий пояс: GMT + 2 Години

Нова тема   Відповісти