Чарівні чудові / This Beautiful Fantastic (2016) 720p Ukr(Mic)/Eng

Нові коментарі

Нова тема   Відповісти
Автор Повідомлення
Anonymous 







2017-05-14 18:11  
Чарівні чудові / This Beautiful Fantastic (2016) 720p Ukr(Mic)/Eng


Жанр: фентезі, драма, мелодрама, комедія
Країна: Велика Британія, США



Кінокомпанія: Ipso Facto Productions, Smudge Films, Constance Media, Head Gear Films, Kreo Films FZ
Режисер: Саймон Ебауд / Simon Aboud
Актори: Джессіка Браун Фіндлі / Jessica Brown Findlay, Том Вілкінсон / Tom Wilkinson, Ендрю Скотт / Andrew Scott, Джеремі Ірвін / Jeremy Irvine, Анна Чанселлор / Anna Chancellor, Ейлін Дейвіс / Eileen Davies, Шейла Хенкок / Sheila Hancock, Шарлотта Еспрі / Charlotte Asprey, Пол Блеквелл / Paul Blackwell, Лола Султан / Lola Sultan та інші

Сюжет:
Іще маленькою Беллу Браун батьки покинули просто серед Гайд Парку. Через це у неї розвинулася агорафобія й паралізуючий страх перед дикою природою. Однак Белла не втрачає любові до життя – у неї є талант і мрія стати дитячою письменницею. Коли перед героїнею постає дилема – привести до ладу занедбаний сад або бути виселеною з помешкання, – вона знаходить розраду в особі сварливого й неприязного заможного дідугана, який живе по сусідству і несподівано виявляється чудовим садівником.
Офіційний український трейлер:

Рейтинг MPAA: PG - рекомендується присутність батьків
Вікова категорія: 12+
Тривалість: 01:31:33
Якість: 720p
Відео:
кодек:
розмір кадру: 1280 х 536
бітрейт: 4057 кб/с

Аудіо # 1:
мова: українська
переклад: багатоголосий закадровий | Mic
кодек: 2.0
бітрейт: 192 кб/с

Аудіо # 2:
мова: англійська
переклад: оригінал
кодек: 5.1
бітрейт: 384 кб/с

Збережено оригінальні розділи
Info
Код:
Complete name               : This Beautiful Fantastic (2016) [Ukr (Mic), Eng] 720p [Hurtom].
Format                      :
Format version              : Version 4 / Version 2
File size                   : 2.96 GiB
Duration                    : 1 h 31 min
Overall bit rate            : 4 635 kb/s
Movie name                  : Чарівні чудові / This Beautiful Fantastic (2016) [Ukr(Mic),Eng] 720p [Hurtom]
Released date               : 2016
Cover                       : Yes
Comment                     : http://www.imdb.com/title/tt4560008/
Attachments                 : cover.jpg
ARTIST                      : Джессіка Браун Фіндлі / Jessica Brown Findlay, Том Вілкінсон / Tom Wilkinson, Ендрю Скотт / Andrew Scott, Джеремі Ірвін / Jeremy Irvine, Анна Чанселлор / Anna Chancellor, Ейлін Дейвіс / Eileen Davies, Шейла Хенкок / Sheila Hancock, Шарлотта Еспрі / Charlotte Asprey, Пол Блеквелл / Paul Blackwell, Лола Султан / Lola Sultan та інші
DIRECTOR                    : Саймон Ебауд / Simon Aboud
GENRE                       : фентезі, драма, мелодрама, комедія
SYNOPSIS                    : Іще маленькою Беллу Браун батьки покинули просто серед Гайд Парку. Через це у неї розвинулася агорафобія й паралізуючий страх перед дикою природою. Однак Белла не втрачає любові до життя – у неї є талант і мрія стати дитячою письменницею. Коли перед героїнею постає дилема – привести до ладу занедбаний сад або бути виселеною з помешкання, – вона знаходить розраду в особі сварливого й неприязного заможного дідугана, який живе по сусідству і несподівано виявляється чудовим садівником.
Url                         : https://toloka.to/t81934

Video
ID                          : 1
Format                      : AVC
Format/Info                 : Advanced Video Codec
Format profile              : [email protected]
Format settings, CABAC      : No
Format settings, ReFrames   : 2 frames
Codec ID                    : V_MPEG4/ISO/AVC
Duration                    : 1 h 31 min
Bit rate                    : 4 057 kb/s
Width                       : 1 280 pixels
Height                      : 536 pixels
Display aspect ratio        : 2.40:1
Frame rate mode             : Constant
Frame rate                  : 24.000 FPS
Color space                 : YUV
Chroma subsampling          : 4:2:0
Bit depth                   : 8 bits
Scan type                   : Progressive
Bits/(Pixel*Frame)          : 0.246
Stream size                 : 2.59 GiB (88%)
Title                       : Чарівні чудові / This Beautiful Fantastic (2016) 720p
Language                    : English
Default                     : Yes
Forced                      : No
Color range                 : Limited
Color primaries             : BT.709
Transfer characteristics    : BT.709
Matrix coefficients         : BT.709

Audio #1
ID                          : 2
Format                      : AC-3
Format/Info                 : Audio Coding 3
Format settings, Endianness : Big
Codec ID                    : A_AC3
Duration                    : 1 h 31 min
Bit rate mode               : Constant
Bit rate                    : 192 kb/s
Channel(s)                  : 2 channels
Channel positions           : Front: L R
Sampling rate               : 48.0 kHz
Frame rate                  : 31.250 FPS (1536 spf)
Bit depth                   : 16 bits
Compression mode            : Lossy
Stream size                 : 126 MiB (4%)
Title                       : MVO [MIC] 2.0 192 Kbps [Hurtom-legos25]
Language                    : Ukrainian
Service kind                : Complete Main
Default                     : Yes
Forced                      : Yes

Audio #2
ID                          : 3
Format                      : AC-3
Format/Info                 : Audio Coding 3
Format settings, Endianness : Big
Codec ID                    : A_AC3
Duration                    : 1 h 31 min
Bit rate mode               : Constant
Bit rate                    : 384 kb/s
Channel(s)                  : 6 channels
Channel positions           : Front: L C R, Side: L R, LFE
Sampling rate               : 48.0 kHz
Frame rate                  : 31.250 FPS (1536 spf)
Bit depth                   : 16 bits
Compression mode            : Lossy
Stream size                 : 251 MiB (8%)
Title                       : Original, 5.1 384 Kbps
Language                    : English
Service kind                : Complete Main
Default                     : No
Forced                      : No

Menu
00:00:00.000                : en:1
00:06:18.375                : en:2
00:12:24.165                : en:3
00:18:36.498                : en:4
00:24:51.663                : en:5
00:30:51.496                : en:6
00:35:54.662                : en:7
00:40:56.162                : en:8
00:47:35.495                : en:9
00:54:14.203                : en:10
00:58:51.786                : en:11
01:04:52.661                : en:12
01:09:22.036                : en:13
01:16:02.952                : en:14
01:23:22.659                : en:15
Ще скріншоти:


Джерело: &
За українську доріжку подяка legos25


 Трекер:    Зареєстрований   

Завантажити / скачати фільм українською



відео для новачків



 Зареєстрований:   2017-05-14 18:22
 Розмір:   2.96 GB 
 Оцінка фільму:   2.6/10 (Голосів: 13)
   
Інші релізи
leicheman 
Відео Гуртом - підтримка та поширення
Відео Гуртом - підтримка та поширення


З нами з: 03.07.14
Востаннє: 20.10.17
Повідомлень: 1267

2017-05-20 20:10  
Звук нормальний. А от кіно не сильно сподобалось. Гг гарна та прикольний "Моріарті".
bot 
робот


З нами з: 30.09.07
Востаннє: 26.05.05
Повідомлень: 17702

2017-06-03 23:25  
Тему перенесено з Закритий розділ до форуму Фільми в HD

Причина перенесення: закінчення кінопрокату
igor911

Uberwinder 
Свій


З нами з: 18.11.16
Востаннє: 20.10.17
Повідомлень: 138

2017-07-07 07:14  
Фільм досить приємний для одноразового перегляду. Звук терпимий.
Ваш часовий пояс: GMT + 2 Години

Нова тема   Відповісти