Чарівні чудові / This Beautiful Fantastic (2016) 720p Ukr/Eng | Sub Eng

Нові коментарі

Нова тема   Відповісти
Автор Повідомлення
Anonymous 







2017-05-14 17:11  
Чарівні чудові / This Beautiful Fantastic (2016) 720p Ukr/Eng | Sub Eng


Жанр: фентезі, драма, мелодрама, комедія
Країна: Велика Британія, США



Кінокомпанія: Ipso Facto Productions, Smudge Films, Constance Media, Head Gear Films, Kreo Films FZ
Режисер: Саймон Ебауд / Simon Aboud
Актори: Джессіка Браун Фіндлі / Jessica Brown Findlay, Том Вілкінсон / Tom Wilkinson, Ендрю Скотт / Andrew Scott, Джеремі Ірвін / Jeremy Irvine, Анна Чанселлор / Anna Chancellor, Ейлін Дейвіс / Eileen Davies, Шейла Хенкок / Sheila Hancock, Шарлотта Еспрі / Charlotte Asprey, Пол Блеквелл / Paul Blackwell, Лола Султан / Lola Sultan та інші

Сюжет:
Іще маленькою Беллу Браун батьки покинули просто серед Гайд Парку. Через це у неї розвинулася агорафобія й паралізуючий страх перед дикою природою. Однак Белла не втрачає любові до життя – у неї є талант і мрія стати дитячою письменницею. Коли перед героїнею постає дилема – привести до ладу занедбаний сад або бути виселеною з помешкання, – вона знаходить розраду в особі сварливого й неприязного заможного дідугана, який живе по сусідству і несподівано виявляється чудовим садівником.
Офіційний український трейлер:

Рейтинг MPAA: PG - рекомендується присутність батьків
Вікова категорія: 12+
Тривалість: 01:31:33
Якість: 720p
Відео:
кодек:
розмір кадру: 1280 х 536
бітрейт: 4057 кб/с

Аудіо # 1:
мова: українська
переклад: багатоголосий закадровий | кінотеатральне озвучення на замовлення Артхаус Трафік
кодек: 2.0 [стерео]
бітрейт: 192 кб/с

Аудіо # 2:
мова: англійська
переклад: оригінал
кодек: 5.1
бітрейт: 384 кб/с

Субтитри:
мова: англійська
тип: програмні (м'які)
формат: *.srt

Збережено оригінальні розділи
Info
Код:

Complete name               : This Beautiful Fantastic (2016) [Ukr,Eng sub.Eng] 720p [Hurtom].
Format                      :
Format version              : Version 4
File size                   : 2.96 GiB
Duration                    : 1 h 31 min
Overall bit rate            : 4 636 kb/s
Movie name                  : Чарівні чудові / This Beautiful Fantastic (2016) [Ukr,Eng sub.Eng] 720p [Hurtom]
Released date               : 2016
Encoded date                : UTC 2018-11-27 21:22:01
Writing application         : v28.2.0 ('The Awakening') 64-bit
Writing library             : libebml v1.3.6 + v1.4.9
Cover                       : Yes
Comment                     : http://www.imdb.com/title/tt4560008/
Attachments                 : cover.jpg
ARTIST                      : Джессіка Браун Фіндлі / Jessica Brown Findlay, Том Вілкінсон / Tom Wilkinson, Ендрю Скотт / Andrew Scott, Джеремі Ірвін / Jeremy Irvine, Анна Чанселлор / Anna Chancellor, Ейлін Дейвіс / Eileen Davies, Шейла Хенкок / Sheila Hancock, Шарлотта Еспрі / Charlotte Asprey, Пол Блеквелл / Paul Blackwell, Лола Султан / Lola Sultan та інші
DIRECTOR                    : Саймон Ебауд / Simon Aboud
GENRE                       : фентезі, драма, мелодрама, комедія
SYNOPSIS                    : Іще маленькою Беллу Браун батьки покинули просто серед Гайд Парку. Через це у неї розвинулася агорафобія й паралізуючий страх перед дикою природою. Однак Белла не втрачає любові до життя – у неї є талант і мрія стати дитячою письменницею. Коли перед героїнею постає дилема – привести до ладу занедбаний сад або бути виселеною з помешкання, – вона знаходить розраду в особі сварливого й неприязного заможного дідугана, який живе по сусідству і несподівано виявляється чудовим садівником.
Url                         : https://toloka.to/t81934

Video
ID                          : 1
Format                      : AVC
Format/Info                 : Advanced Video Codec
Format profile              : [email protected]
Format settings             : 2 Ref Frames
Format settings, CABAC      : No
Format settings, ReFrames   : 2 frames
Codec ID                    : V_MPEG4/ISO/AVC
Duration                    : 1 h 31 min
Bit rate                    : 4 057 kb/s
Width                       : 1 280 pixels
Height                      : 536 pixels
Display aspect ratio        : 2.40:1
Frame rate mode             : Constant
Frame rate                  : 24.000 FPS
Color space                 : YUV
Chroma subsampling          : 4:2:0
Bit depth                   : 8 bits
Scan type                   : Progressive
Bits/(Pixel*Frame)          : 0.246
Stream size                 : 2.59 GiB (88%)
Title                       : Чарівні чудові / This Beautiful Fantastic (2016) 720p
Language                    : English
Default                     : Yes
Forced                      : No
Color range                 : Limited
Color primaries             : BT.709
Transfer characteristics    : BT.709
Matrix coefficients         : BT.709

Audio #1
ID                          : 2
Format                      : AC-3
Format/Info                 : Audio Coding 3
Commercial name             : Dolby Digital
Codec ID                    : A_AC3
Duration                    : 1 h 31 min
Bit rate mode               : Constant
Bit rate                    : 192 kb/s
Channel(s)                  : 2 channels
Channel layout              : L R
Sampling rate               : 48.0 kHz
Frame rate                  : 31.250 FPS (1536 SPF)
Bit depth                   : 16 bits
Compression mode            : Lossy
Stream size                 : 126 MiB (4%)
Title                       : MVO [Inter, Arthouse Traffic] 2.0 192 Kbps [Hurtom-Bohdan237]
Language                    : Ukrainian
Service kind                : Complete Main
Default                     : Yes
Forced                      : Yes

Audio #2
ID                          : 3
Format                      : AC-3
Format/Info                 : Audio Coding 3
Commercial name             : Dolby Digital
Codec ID                    : A_AC3
Duration                    : 1 h 31 min
Bit rate mode               : Constant
Bit rate                    : 384 kb/s
Channel(s)                  : 6 channels
Channel layout              : L R C LFE Ls Rs
Sampling rate               : 48.0 kHz
Frame rate                  : 31.250 FPS (1536 SPF)
Bit depth                   : 16 bits
Compression mode            : Lossy
Stream size                 : 251 MiB (8%)
Title                       : Original, 5.1 384 Kbps
Language                    : English
Service kind                : Complete Main
Default                     : No
Forced                      : No

Text
ID                          : 4
Format                      : UTF-8
Codec ID                    : S_TEXT/UTF8
Codec ID/Info               : UTF-8 Plain Text
Duration                    : 1 h 27 min
Bit rate                    : 56 b/s
Count of elements           : 1085
Stream size                 : 36.0 KiB (0%)
Title                       : Eng full
Language                    : English
Default                     : No
Forced                      : No

Menu
00:00:00.000                : en:1
00:06:18.375                : en:2
00:12:24.165                : en:3
00:18:36.498                : en:4
00:24:51.663                : en:5
00:30:51.496                : en:6
00:35:54.662                : en:7
00:40:56.162                : en:8
00:47:35.495                : en:9
00:54:14.203                : en:10
00:58:51.786                : en:11
01:04:52.661                : en:12
01:09:22.036                : en:13
01:16:02.952                : en:14
01:23:22.659                : en:15
Ще скріншоти:


Джерело: &
Подяка п.Bohdan237 за запис, синхронізацію та надання української доріжки.

27.11.2018 реліз оновлено: звук MIC замінено доріжкою зі стереозапису з Інтера, додано оригінальні субтитри


 Трекер:    Зареєстрований   

Завантажити / скачати фільм українською



відео для новачків



 Зареєстрований:   2018-11-27 23:38
 Розмір:   2.96 GB 
 Оцінка фільму:   6.3/10 (Голосів: 28)
 ЗАЛИШАЙТЕСЬ ЯКОМОГА ДОВШЕ НА РОЗДАЧІ! ЗАВАНТАЖИВ САМ - ДАЙ ЗАВАНТАЖИТИ ІНШИМ!
   
Інші релізи
leicheman 
Відео Гуртом - фільмокрай
Відео Гуртом - фільмокрай


З нами з: 03.07.14
Востаннє: 21.01.20
Повідомлень: 4377

2017-05-20 19:10  
Звук нормальний. А от кіно не сильно сподобалось. Гг гарна та прикольний "Моріарті".
Uberwinder 
VIP


З нами з: 18.11.16
Востаннє: 21.01.20
Повідомлень: 277

2017-07-07 06:14  
Фільм досить приємний для одноразового перегляду. Звук терпимий.
Anonymous 







2018-11-27 23:41  
Реліз оновлено: звук MIC замінено доріжкою з стереозапису з Інтера, додано оригінальні субтитри
staf777 
Відео Гуртом - підтримка та поширення
Відео Гуртом - підтримка та поширення


З нами з: 16.11.16
Востаннє: 20.01.20
Повідомлень: 3338

2018-11-28 09:17  
1080
santaklava 
Свій


З нами з: 12.10.09
Востаннє: 16.01.20
Повідомлень: 50

2018-11-28 13:45  
Дякую, фільм сподобався дуже.
se_verus 
Частий відвідувач


З нами з: 12.04.17
Востаннє: 24.04.19
Повідомлень: 36

2018-11-28 16:14  
Хотів сходити на цей фільм до кінотеатру, та не вийшло. Тепер можна влаштувати собі вечір приємного перегляду.
taksist 
VIP


З нами з: 10.12.12
Востаннє: 21.01.20
Повідомлень: 294

2018-11-29 01:36  
і в чому тут фентезі.
Anonymous 







2018-11-29 08:53  
taksist написано:
і в чому тут фентезі?

не дивився фільм, але так вказано на imdb, rottentomatoes, themoviedb та інших сайтах. Можливо на це натякає слово "Fantastic" в назві?

taksist 
VIP


З нами з: 10.12.12
Востаннє: 21.01.20
Повідомлень: 294

2018-11-29 11:53  
тоді фільм аватар це фільм про алькоголіків.
se_verus 
Частий відвідувач


З нами з: 12.04.17
Востаннє: 24.04.19
Повідомлень: 36

2018-12-01 18:13  
taksist

Чесно? Ні в чому. Так само, як і комедія. Просто легка мелодрама для приємного одноразового перегляду. Не думаю, що колись захочу подивитись фільм знову, хоча і сказати, що шкодую про втрачені півтори години теж не можу. Не розчарував, але і не зачепив абсолютно нічим.

an.j. 
Свій


З нами з: 20.10.12
Востаннє: 20.01.20
Повідомлень: 85

2019-01-21 13:33  
гарне світле і повчальне кіно, однозначно всім раджу переглянути Happy
Ваш часовий пояс: GMT + 2 Години

Нова тема   Відповісти