Євробачення 2017. Фінал / Eurovision 2017. Final (13.05.2017) HDTV 1080i Ukr/Int

Нові коментарі

Нова тема   Відповісти
Автор Повідомлення
sergiyko.5 
VIP


З нами з: 25.02.16
Востаннє: 18.08.17
Повідомлень: 993

2017-05-14 17:53  
Євробачення 2017. Фінал / Eurovision 2017. Final (13.05.2017) HDTV 1080i Ukr/Int

Євробачення 2017. Фінал / Eurovision 2017. Final (13.05.2017) HDTV 1080i Ukr/Int

Жанр: Пісенний конкурс
Країна: Україна
Телеканал: ETV + (відео/аудіо 2), Перший Національний (аудіо 1)
Мова коментарів: українська (Тетяна Терехова та Андрій Городиський), англійська (Mel Giedroyc и Scott Mills)

Опис:
Фінал Євробачення-2017 відбувся у Києві у суботу, 13 травня о 22:00 годині за київським часом.

За перше місце у фіналі конкурсу поборолись виконавці з 26 країн.


Треклист:
01. Ізраіль. IMRI – "I Feel Alive"
02. Польща. Кася Мось – "Flashlight"
03. Білорусь. Naviband – "Гістория майго жицця"
04. Австрія. Натан Трент – "Running On Air"
05. Вірменія. Арцвік – "Fly With Me"
06. Нідерланди. O'G3NE – "Lights and Shadows"
07. Молдова. SunStroke Project – "Hey Mamma"
08. Угорщина. Йоци Папай – "Origo"
09. Італія. Francesco Gabbani – "Occidentali's Karma"
10. Данія. Аня Ниссен – "Where I Am"
11. Португалія. Сальвадор Собрал – "Amar Pelos Dois"
12. Азербайджан. Dihaj (Діана Гаджиєва) – "Skeletons"
13. Хорватія. Jacques Houdek – "My Friend"
14. Австралія. Ісайя Файрбрейс– "Don't Come Easy"
15. Греція. Demy – "This is Love"
16. Іспанія. Манель Наваро – "Do It For Your Lover"
17. Норвегія. JOWST (Йоаким Вит Стин, Александр Валман) – "Grab The Moment"
18. Великобританія. Люсі Джонс – "Never Give Up On You"
19. Кіпр. Hovig – "Gravity"
20. Румунія. Ілінка и Алекс Флоря – "Yodel It!"
21. Німеччина. Ізабелла Левіна – "Perfect Life"
22. Україна. O.Torvald – "Time"
23. Бельгія. Blanche – "City Lights"
24. Швеція. Робін Бенгтссон – "I Can't Go On"
25. Болгарія. Крістіан Костов – "Beautiful Mess"
26. Франція. Альма – "Requiem"

Тривалість: 03:40:48
Якість: HDTV

Відео: кодек: розмір кадру: 1920 х 1080 бітрейт: 7000 кб/с
Аудіо #1: мова: українська голос за кадром: двоголосий закадровий (Тетяна Терехова та Андрій Городиський) кодек: 2.0 бітрейт: 192 кб/с
Аудіо #2: інтершум кодек: 2.0 бітрейт: 192 кб/с
Про файл:
General
Unique ID : 181347788544736105691922123341925552972 (0x886E504A1983BF43B22955E73D1D934C)
Complete name : D:\Torrents\MUSIC\Eurovision.2017.Final.13.05.2017.HDTV.1080i.Ukr.Int.
Format :
Format version : Version 4 / Version 2
File size : 10.8 GiB
Duration : 3h 40mn
Overall bit rate : 6 977 Kbps
Movie name : Audio Ukr by sergiyko
Encoded date : UTC 2017-05-14 14:36:04
Writing application : mkvmerge v9.8.0 ('Kuglblids') 64bit
Writing library : libebml v1.3.4 + libmatroska v1.4.5
DURATION : 03:40:47.584000000
NUMBER_OF_FRAMES : 413987
NUMBER_OF_BYTES : 317942016
_STATISTICS_WRITING_APP : mkvmerge v9.8.0 ('Kuglblids') 64bit
_STATISTICS_WRITING_DATE_UTC : 2017-05-14 14:36:04
_STATISTICS_TAGS : BPS DURATION NUMBER_OF_FRAMES NUMBER_OF_BYTES

Video
ID : 1
Format : AVC
Format/Info : Advanced Video Codec
Format profile : [email protected]
Format settings, CABAC : Yes
Format settings, ReFrames : 4 frames
Codec ID : V_MPEG4/ISO/AVC
Duration : 3h 40mn
Bit rate : 6 454 Kbps
Width : 1 920 pixels
Height : 1 080 pixels
Display aspect ratio : 16:9
Frame rate mode : Constant
Frame rate : 25.000 fps
Standard : Component
Color space : YUV
Chroma subsampling : 4:2:0
Bit depth : 8 bits
Scan type : Interlaced
Scan order : Top Field First
Bits/(Pixel*Frame) : 0.125
Stream size : 9.95 GiB (93%)
Title : Eurovision.2017.Final.13.05.2017.HDTV.1080i.Ukr.Int
Language : English
Default : Yes
Forced : No
Color range : Limited
Color primaries : BT.709
Transfer characteristics : BT.709
Matrix coefficients : BT.709

Audio #1
ID : 2
Format : AC-3
Format/Info : Audio Coding 3
Mode extension : CM (complete main)
Format settings, Endianness : Big
Codec ID : A_AC3
Duration : 3h 40mn
Bit rate mode : Constant
Bit rate : 192 Kbps
Channel(s) : 2 channels
Channel positions : Front: L R
Sampling rate : 48.0 KHz
Compression mode : Lossy
Stream size : 303 MiB (3%)
Title : UKR Перший Національний
Language : Ukrainian
Default : Yes
Forced : Yes

Audio #2
ID : 3
Format : AC-3
Format/Info : Audio Coding 3
Mode extension : CM (complete main)
Format settings, Endianness : Big
Codec ID : A_AC3
Duration : 3h 40mn
Bit rate mode : Constant
Bit rate : 192 Kbps
Channel(s) : 2 channels
Channel positions : Front: L R
Sampling rate : 48.0 KHz
Compression mode : Lossy
Stream size : 303 MiB (3%)
Title : Інтершум
Default : No
Forced : No

Menu
00:02:27.671 : :Глава 01
00:12:14.000 : :Глава 02
00:16:15.505 : :Глава 03
00:20:16.660 : :Глава 04
00:24:15.579 : :Глава 05
00:28:05.608 : :Глава 06
00:32:01.324 : :Глава 07
00:37:38.402 : :Глава 08
00:41:41.627 : :Глава 09
00:45:41.950 : :Глава 10
00:49:46.076 : :Глава 11
00:53:47.987 : :Глава 12
00:58:34.735 : :Глава 13
01:02:34.757 : :Глава 14
01:06:34.354 : :Глава 15
01:11:32.043 : :Глава 16
01:15:30.146 : :Глава 17
01:19:33.635 : :Глава 18
01:27:30.719 : :Глава 19
01:31:32.963 : :Глава 20
01:35:42.123 : :Глава 21
01:39:35.616 : :Глава 22
01:44:58.056 : :Глава 23
01:48:57.624 : :Глава 24
01:53:32.500 : :Глава 25
01:57:32.581 : :Глава 26
02:01:31.149 : :Глава 27
02:14:09.264 : :Глава 28
02:23:13.834 : :Глава 29
02:39:02.166 : :Глава 30
02:43:57.643 : :Глава 31
03:36:28.142 : :Глава 32

Скріншоти:




Автор зведення:
sergiyko



Золотий реліз (завантажене не впливає на рейтинг)
 Трекер:    Зареєстрований   

Завантажити / скачати передачу українською



відео для новачків



 Зареєстрований:   2017-05-14 17:53
 Розмір:   10.76 GB 
 Оцінка передачі:   8.1/10 (Голосів: 14)
   
yurchyks 
Новенький


З нами з: 04.11.10
Востаннє: 02.06.17
Повідомлень: 10

2017-05-14 18:27  
Дуже дякую за зведення HD картинки і укр.звуку!

Додано через 16 хвилин 59 секунд:

щось нічого не роздається Sad (1)

sergiyko.5 
VIP


З нами з: 25.02.16
Востаннє: 18.08.17
Повідомлень: 993

2017-05-14 19:41  
yurchyks написано:
щось нічого не роздається


Цитата:
Завантажили: [ 3 ]

sora Sho Takarai 
Новенький


З нами з: 01.01.09
Востаннє: 15.08.17
Повідомлень: 7

2017-05-15 02:15  
Щиро дякую за оперативні ріпи, бо інакше шоу пройшло б повз мене. ДякуюHappy
Jani307 
Свій


З нами з: 09.06.14
Востаннє: 18.08.17
Повідомлень: 68

2017-05-15 11:12  
Як вам результат? Я про переможця.
Xshot 
VIP


З нами з: 22.09.09
Востаннє: 18.08.17
Повідомлень: 1600

2017-05-15 21:54  
Як на мене переможець "ніякий". Я розчарований таким вибором. Друге та третє місця набагато більше до вподоби) Хоча, я думаю, Melovin з ними міг потягатися)
MELOVIN - Wonder
TAYANNA - I love you

Ваш часовий пояс: GMT + 2 Години

Нова тема   Відповісти