Смокінг / The Tuxedo (2002) 1080p 2xUkr/Eng | Sub Eng

Нові коментарі

Нова тема   Відповісти
Автор Повідомлення
Pegass 
VIP


З нами з: 17.12.09
Востаннє: 24.08.17
Повідомлень: 519

2017-05-14 17:48  
Смокінг / The Tuxedo (2002) 1080p 2xUkr/Eng | Sub Eng

Смокінг / The Tuxedo (2002) 1080p 2xUkr/Eng | Sub Eng


Жанр: бойовик, комедія, екшн, фантастика
Країна: США



Кінокомпанія: Blue Train Productions, DreamWorks SKG, Parkes+MacDonald Image Nation
Режисер: Кевін Донован
Актори: Джекі Чан (Jackie Chan), Дженіфер Лав Г’юіт (Jennifer Love Hewitt), Джейсон Айзекс, Дебі Мейзер, Річі Костер, Пітер Стормер

Сюжет:
Безталанний водій Джиммі Тонг несподівано отримує чудову роботу. Джиммі стає водієм у випещеного денді-мільйонера Кларка Девліна. Нова "престижна" посада була тихою та спокійною доти, доки водій не виявив, що його власний бос - шпигун екстра класу! Після того, як невідомі злодії "відправляють" Девліна до лікарні, Джиммі вирішує..."підмінити" пораненого шефа. Тепер Тонг приміряє на себе не лише маску секретного агента, а й смокінг Девліна, котрий насправді є унікальною супер-зброєю вартістю 3 мільярди доларів!


Тривалість: 01:38:45
Якість: 1080p [Amazon Video]
Відео:
кодек:
розмір кадру: 1920 х 1080
бітрейт: 14 Мб/с

Аудіо # 1:
мова: українська
переклад: багатоголосий закадровий
кодек: 2.0
бітрейт: 192 кб/с

Аудіо # 2:
мова: українська
переклад: двоголосий закадровий
кодек: 2.0
бітрейт: 192 кб/с

Аудіо # 3:
мова: англійська
переклад: оригінал
кодек: 5.1
бітрейт: 448 кб/с

Субтитри # 1:
мова: англійська (SDH з Амазону)
тип: програмні (м'які)
формат: *.srt
Info
General
Unique ID : 196531172933436982757345117923507622853 (0x93DA86EFC02D6A908684CB3EF4BED3C5)
Format :
Format version : Version 4 / Version 2
File size : 10.5 GiB
Duration : 1 h 38 min
Overall bit rate mode : Variable
Overall bit rate : 15.2 Mb/s
Movie name : The Tuxedo (2002) 1080p [2xUkr.Eng Sub.Eng] [Hurtom]
Encoded date : UTC 2017-05-14 13:21:58
Writing application : mkvmerge v6.1.0 ('Old Devil') built on Mar 2 2013 14:32:37
Writing library : libebml v1.3.0 + libmatroska v1.4.0
Cover : Yes
Attachments : Cover.jpg

Video
ID : 1
Format : AVC
Format/Info : Advanced Video Codec
Format profile : High@L4
Format settings, CABAC : Yes
Format settings, ReFrames : 4 frames
Codec ID : V_MPEG4/ISO/AVC
Duration : 1 h 38 min
Bit rate mode : Variable
Bit rate : 14.0 Mb/s
Maximum bit rate : 15.0 Mb/s
Width : 1 920 pixels
Height : 1 080 pixels
Display aspect ratio : 16:9
Frame rate mode : Constant
Frame rate : 23.976 (24000/1001) FPS
Color space : YUV
Chroma subsampling : 4:2:0
Bit depth : 8 bits
Scan type : Progressive
Bits/(Pixel*Frame) : 0.282
Stream size : 9.68 GiB (93%)
Title : The Tuxedo (2002) 1080p [2xUkr.Eng Sub.Eng] [Hurtom]
Writing library : core 148 r2623 d5b2374
Encoding settings : cabac=1 / ref=4 / deblock=1:-1:-1 / analyse=0x3:0x133 / me=umh / subme=9 / psy=1 / psy_rd=1.00:0.15 / mixed_ref=1 / me_range=24 / chroma_me=1 / trellis=2 / 8x8dct=1 / cqm=0 / deadzone=21,11 / fast_pskip=1 / chroma_qp_offset=-3 / threads=34 / lookahead_threads=5 / sliced_threads=0 / nr=150 / decimate=1 / interlaced=0 / bluray_compat=0 / constrained_intra=0 / bframes=8 / b_pyramid=2 / b_adapt=2 / b_bias=0 / direct=3 / weightb=1 / open_gop=0 / weightp=2 / keyint=120 / keyint_min=61 / scenecut=0 / intra_refresh=0 / rc_lookahead=120 / rc=crf / mbtree=1 / crf=18.0 / qcomp=0.60 / qpmin=0 / qpmax=69 / qpstep=4 / vbv_maxrate=15000 / vbv_bufsize=31250 / crf_max=0.0 / nal_hrd=vbr / filler=0 / ip_ratio=1.40 / aq=3:1.00
Language : English
Default : Yes
Forced : No
Color range : Limited
Color primaries : BT.709
Transfer characteristics : BT.709
Matrix coefficients : BT.709

Audio #1
ID : 2
Format : AC-3
Format/Info : Audio Coding 3
Format settings, Endianness : Big
Codec ID : A_AC3
Duration : 1 h 38 min
Bit rate mode : Constant
Bit rate : 192 kb/s
Channel(s) : 2 channels
Channel positions : Front: L R
Sampling rate : 48.0 kHz
Frame rate : 31.250 FPS (1536 spf)
Bit depth : 16 bits
Compression mode : Lossy
Stream size : 136 MiB (1%)
Title : MVO | NTN | 2.0 | 192 kb/s
Language : Ukrainian
Service kind : Complete Main
Default : Yes
Forced : No

Audio #2
ID : 3
Format : AC-3
Format/Info : Audio Coding 3
Format settings, Endianness : Big
Codec ID : A_AC3
Duration : 1 h 38 min
Bit rate mode : Constant
Bit rate : 192 kb/s
Channel(s) : 2 channels
Channel positions : Front: L R
Sampling rate : 48.0 kHz
Frame rate : 31.250 FPS (1536 spf)
Bit depth : 16 bits
Compression mode : Lossy
Stream size : 136 MiB (1%)
Title : DVO | ICTV | 2.0 | 192 kb/s
Language : Ukrainian
Service kind : Complete Main
Default : No
Forced : No

Audio #3
ID : 4
Format : AC-3
Format/Info : Audio Coding 3
Format settings, Endianness : Big
Codec ID : A_AC3
Duration : 1 h 38 min
Bit rate mode : Constant
Bit rate : 448 kb/s
Channel(s) : 6 channels
Channel positions : Front: L C R, Side: L R, LFE
Sampling rate : 48.0 kHz
Frame rate : 31.250 FPS (1536 spf)
Bit depth : 16 bits
Compression mode : Lossy
Stream size : 316 MiB (3%)
Title : Original
Language : English
Service kind : Complete Main
Default : No
Forced : No

Text
ID : 5
Format : UTF-8
Codec ID : S_TEXT/UTF8
Codec ID/Info : UTF-8 Plain Text
Title : Full, SDH, Amazon
Language : English
Default : No
Forced : No

Menu
00:00:00.000 : en:Aqua La Vista (Main Titles)
00:03:36.800 : en:Art Gallery/Bike Messenger
00:08:12.158 : en:House Rules
00:10:51.650 : en:Meet Clark Devlin
00:13:17.087 : en:CSA Headquarters/Bug Store
00:19:14.778 : en:Skateboard Bomb
00:24:43.356 : en:Banning International
00:27:08.584 : en:Tuxedo Demo
00:31:23.005 : en:Nice Rack
00:35:34.506 : en:Rope Fighting
00:41:18.724 : en:A Little Over Amped
00:44:48.517 : en:Meet James Brown
00:49:04.439 : en:The Last Emperor of Soul
00:57:09.202 : en:Cheryl's Hospitality Suite
01:05:19.329 : en:Walk on Water
01:12:30.384 : en:"Clark Devlin" Is Back
01:17:33.353 : en:The Tuxedo vs. The Suit
01:22:37.490 : en:Awaiting the Queen
01:28:35.181 : en:Operation Art Gallery
01:33:12.249 : en:Outtakes (End Credits)
01:38:41.246 : en:Aqua La Vista (Main Titles)
Скріншоти



















Джерело: &
За доріжку від ICTV дякую п. BigMak, MechanicCDRR, greg_7
Панові РОМЕО дякую за запис з каналу НТН
За опис дякую панові Arsenfpu, Premer_Joker та BigMak
За синхронізацію дякую zextor, BigMak та Arsenfpu
За постер дякую панові VigbMAK
Особиста оцінка: 10 - без зайвих вагань рекомендую всім!


Срібний реліз (на рейтинг впливає 50% завантаженого)
 Трекер:    Зареєстрований   

Завантажити / скачати фільм українською



відео для новачків



 Зареєстрований:   2017-05-14 17:57
 Розмір:   10.46 GB 
 Оцінка фільму:   9/10 (Голосів: 6)
   
Інші релізи
   Смокінг / The Tuxedo (2002) 2xUkr/Eng Arsenfpu  6 / 0   1.68 GB   2015-10-17 12:15 
   Смокінг / The Tuxedo (2002) 720p Ukr/Eng | Sub Eng Premer_Joker  5 / 0   3.23 GB   2015-07-14 13:14 
igor911 
Відео Гуртом
Відео Гуртом


З нами з: 18.01.08
Востаннє: 24.08.17
Повідомлень: 7347

2017-05-15 21:45  
Pegass написано:
1080p
Оригінальне відео з iTunes'а та Amazon'а позначається, як .
Electroz 
Відео Гуртом - підтримка та поширення
Відео Гуртом - підтримка та поширення


З нами з: 18.09.14
Востаннє: 24.08.17
Повідомлень: 1496

2017-05-15 22:40  
Pegass написано:
Amazon Video

З амазону ріпають відео, отже в заголовку має бути .

igor911 
Відео Гуртом
Відео Гуртом


З нами з: 18.01.08
Востаннє: 24.08.17
Повідомлень: 7347

2017-05-15 23:18  
Electroz написано:
З амазону ріпають відео
тоді то називатиметься 'ом, а тут оригінальне відео, придбане на Амазоні і ріпалось воно хіба самим Амазоном, і скрізь воно називається . І якось нелогічно називати якісніше відео з бітрейтом 10-15 Мб/с вебріпом, а айтюнсовске з менше 5 Мб/с .
Ваш часовий пояс: GMT + 2 Години

Нова тема   Відповісти