Dronny Darko - Abduction (2017) [] | Dark Ambient / Drone

Нові коментарі

Нова тема   Відповісти
Останній раз роздавалося kolpavel (2019-07-20)
Автор Повідомлення
kolpavel 
VIP


З нами з: 04.05.14
Востаннє: 19.07.19
Повідомлень: 1251

2017-05-14 14:43  
Dronny Darko - Abduction (2017) [] | Dark Ambient / Drone

Dronny Darko - Abduction (2017) [] | Dark Ambient / Drone


Стиль: Dark Ambient Drone
Країна, місто: Україна, Київ
Видавець: Cryo Chamber
Виконавці:
Олег Пузан

Пісні:
    1. Abduction - 6:49
    2. Arctic Pollen - 10:00
    3. Intermission 1 - Crystalline Tunnels - 2:56
    4. Vapor Swamps - 10:59
    5. Lactose Chamber 4:56
    6. Intermission 2 - Curtain Of Patterns - 2:00
    7. Veils Of Static - 4:53
    8. Electrode Salts - 10:00

Тривалість: 00:52:33
Мова: iнструментальнi композицii
Аудіо-кодек:
Бітрейт: 1184-1673 кб/с
Джерело: трекер
Додаткова інформація:
Лог
foobar2000 1.3.14 / Dynamic Range Meter 1.1.1
log date: 2017-05-11 06:43:20

--------------------------------------------------------------------------------
Analyzed: Dronny Darko / Abduction
--------------------------------------------------------------------------------

DR Peak RMS Duration Track
--------------------------------------------------------------------------------
DR9 0.00 dB -11.55 dB 6:49 01-Abduction
DR10 0.00 dB -11.47 dB 10:01 02-Arctic Pollen
DR13 0.00 dB -16.53 dB 2:57 03-Intermission 1 - Crystalline Tunnels
DR12 0.00 dB -14.27 dB 10:59 04-Vapor Swamps
DR11 0.00 dB -13.66 dB 4:57 05-Lactose Chamber
DR8 -2.06 dB -13.50 dB 2:00 06-Intermission 2 - Curtain of Patterns
DR11 0.00 dB -14.36 dB 4:54 07-Veils of Static
DR10 0.00 dB -13.08 dB 10:00 08-Electrode Salts
--------------------------------------------------------------------------------

Number of tracks: 8
Official DR value: DR11

Samplerate: 44100 Hz
Channels: 2
Bits per sample: 24
Bitrate: 1497 kbps
Codec:
================================================================================
Якщо Ви справді бажаєте підтримати українське - після прослуховування, якщо музика вам сподобалась, придбайте ліцензійний диск. Підтримаймо вітчизняних виконавців!


Срібний реліз (на рейтинг впливає 50% завантаженого)
 Трекер:    Зареєстрований   

Завантажити / скачати українську музику



відео для новачків



 Зареєстрований:   2018-11-12 22:18
 Розмір:   513 MB 
 Оцінка музики:   10/10 (Голосів: 1)
   
duke.ukr 
Новенький


З нами з: 27.10.15
Востаннє: 12.07.19
Повідомлень: 4

2017-05-22 14:33  
Хотів послухати щось нове, скачав... зрозумів, що без семплів краще не експерементувати Happy
як кажуть "на любітєля"

SpeedCore{Dp} 
Новенький


З нами з: 15.07.14
Востаннє: 23.10.18
Повідомлень: 20

2017-06-01 21:05  
Доброго дня! Чому відсутня роздача в мp3?
Ваш часовий пояс: GMT + 2 Години

Нова тема   Відповісти