Махач вчителів (Кулачний бій) / Fist Fight (2017) 720p Ukr/Eng

Нові коментарі

Нова тема   Відповісти
Автор Повідомлення
Anonymous 







2017-05-14 12:43  
Махач вчителів / Fist Fight (2017) 720p Ukr/Eng

Махач вчителів (Кулачний бій) / Fist Fight (2017) 720p Ukr/Eng
Постер з альтернативною назвою
Після школи. На парковці. Час розплати.



Жанр: комедія
Країна: США

Кінокомпанія: Warner Bros. Pictures, New Line Cinema, Village Roadshow Pictures
Режисер: Річі Кін
Актори: Айс К'юб, Чарлі Дей, Крістіна Гендрікс, Трейсі Морґан, Джілліан Белл, Кумейл Нанджіані, ДжоАнна Ґарсіа Суїшер, Дін Норріс, Денніс Гейсберт, Чарлі Карвер

Сюжет:
В останній день навчального року тихий вчитель Енді Кемпбелл робить все можливе, щоб не повестися на дорослі "розводи", боротися проти жахливої адміністрації та урізання бюджету, що перетворює роботу на щось ще складніше. Але все стає набагато гірше, коли Енді випадково перейшов дорогу іншому вчителю Страйкленду, який має кращі, ніж Кемпбелл фізичні параметри. Страйкленд змушує Енді битися після уроків на очах у всієї школи. А учням тільки бійку вчителів і подавай.

Офіційний український трейлер

Рейтинг MPAA: R - особам до 17 років рекомендується присутність батьків
Вікова категорія: 16+
Тривалість: 01:31:01
Якість: 720p
Відео:
кодек:
розмір кадру: 1280x720
бітрейт: 5364 кб/с

Аудіо #1:
мова: українська
озвучення: професійне дубльоване |
кодек: 2.0
бітрейт: 192 кб/с
Інформація про дубляж
Режисер дубляжу: Катерина Брайковська
Переклад: Сергія Ковальчука
Звукорежисер: Олександр Мостовенко
Звукорежисер перезапису: Дмитро Мілковський
Ролі дублювали: Дмитро Завадський, Кирило Нікітенко, Наталія Романько-Кисельова, Володимир Кокотунов, Катерина Брайковська, Євген Пашин та інші.
Фільм дубльовано компанією Postmodern.

Аудіо #2:
мова: англійська
озвучення: оригінал
кодек: 5.1
бітрейт: 1509 кб/с
Info
Код:
General
Unique ID                      : 251843380867958323392726365047327419026 (0xBD7745567C97376BBC14AAC4EA35EA92)
Complete name                  : D:\Роздачі\Fist Fight (2017) 720p [Ukr.Eng] [Hurtom].
Format                         :
Format version                 : Version 4 / Version 2
File size                      : 4.49 GiB
Duration                       : 1h 31mn
Overall bit rate               : 7 066 Kbps
Encoded date                   : UTC 2017-05-14 13:05:37
Writing application            : mkvmerge v9.3.1 ('Mask Machine') 64bit
Writing library                : libebml v1.3.4 + libmatroska v1.4.5
DURATION                       : 01:31:01.536000000
NUMBER_OF_FRAMES               : 170673
NUMBER_OF_BYTES                : 131076864
_STATISTICS_WRITING_APP        : mkvmerge v9.3.1 ('Mask Machine') 64bit
_STATISTICS_WRITING_DATE_UTC   : 2017-05-14 13:05:37
_STATISTICS_TAGS               : BPS DURATION NUMBER_OF_FRAMES NUMBER_OF_BYTES

Video
ID                             : 1
Format                         : AVC
Format/Info                    : Advanced Video Codec
Format profile                 : [email protected]
Format settings, CABAC         : Yes
Format settings, ReFrames      : 5 frames
Codec ID                       : V_MPEG4/ISO/AVC
Duration                       : 1h 31mn
Bit rate                       : 5 364 Kbps
Width                          : 1 280 pixels
Height                         : 720 pixels
Display aspect ratio           : 16:9
Frame rate mode                : Constant
Frame rate                     : 23.976 fps
Color space                    : YUV
Chroma subsampling             : 4:2:0
Bit depth                      : 8 bits
Scan type                      : Progressive
Bits/(Pixel*Frame)             : 0.243
Stream size                    : 3.32 GiB (74%)
Writing library                : core 148 r2744 b97ae06
Encoding settings              : cabac=1 / ref=5 / deblock=1:0:0 / analyse=0x3:0x133 / me=umh / subme=7 / psy=1 / psy_rd=1.00:0.00 / mixed_ref=1 / me_range=16 / chroma_me=1 / trellis=1 / 8x8dct=1 / cqm=0 / deadzone=21,11 / fast_pskip=0 / chroma_qp_offset=-2 / threads=22 / lookahead_threads=3 / sliced_threads=0 / nr=0 / decimate=1 / interlaced=0 / bluray_compat=0 / constrained_intra=0 / bframes=3 / b_pyramid=2 / b_adapt=1 / b_bias=0 / direct=1 / weightb=1 / open_gop=0 / weightp=2 / keyint=250 / keyint_min=23 / scenecut=40 / intra_refresh=0 / rc_lookahead=40 / rc=2pass / mbtree=1 / bitrate=5364 / ratetol=1.0 / qcomp=0.60 / qpmin=0 / qpmax=69 / qpstep=4 / cplxblur=20.0 / qblur=0.5 / ip_ratio=1.40 / aq=1:1.00
Language                       : English
Default                        : Yes
Forced                         : No
DURATION                       : 01:31:01.548000000
NUMBER_OF_FRAMES               : 130946
NUMBER_OF_BYTES                : 3661138466
_STATISTICS_WRITING_APP        : mkvmerge v9.3.1 ('Mask Machine') 64bit
_STATISTICS_WRITING_DATE_UTC   : 2017-05-14 13:05:37
_STATISTICS_TAGS               : BPS DURATION NUMBER_OF_FRAMES NUMBER_OF_BYTES

Audio #1
ID                             : 2
Format                         : AC-3
Format/Info                    : Audio Coding 3
Mode extension                 : CM (complete main)
Format settings, Endianness    : Big
Codec ID                       : A_AC3
Duration                       : 1h 31mn
Bit rate mode                  : Constant
Bit rate                       : 192 Kbps
Channel(s)                     : 2 channels
Channel positions              : Front: L R
Sampling rate                  : 48.0 KHz
Compression mode               : Lossy
Stream size                    : 125 MiB (3%)
Language                       : Ukrainian
Default                        : Yes
Forced                         : No

Audio #2
ID                             : 3
Format                         :
Format/Info                    : Digital Theater Systems
Mode                           : 16
Format settings, Endianness    : Big
Codec ID                       : A_DTS
Duration                       : 1h 31mn
Bit rate mode                  : Constant
Bit rate                       : 1 509 Kbps
Channel(s)                     : 6 channels
Channel positions              : Front: L C R, Side: L R, LFE
Sampling rate                  : 48.0 KHz
Bit depth                      : 24 bits
Compression mode               : Lossy
Stream size                    : 982 MiB (21%)
Language                       : English
Default                        : No
Forced                         : No

Menu
00:00:00.000                   : en:00:00:00.000
00:09:54.010                   : en:00:09:54.010
00:20:36.527                   : en:00:20:36.527
00:29:52.290                   : en:00:29:52.290
00:44:00.471                   : en:00:44:00.471
00:50:11.217                   : en:00:50:11.217
01:02:44.844                   : en:01:02:44.844
01:10:16.754                   : en:01:10:16.754
01:19:36.021                   : en:01:19:36.021
01:24:07.125                   : en:01:24:07.125
Скріншоти

Підтримати купівлю інших фільмів можна тут

Подяка пану Covenant за українську доріжку
Джерело: &
Особиста оцінка: 0 - не дивився


 Трекер:    Зареєстрований   

Завантажити / скачати фільм українською



відео для новачків



 Зареєстрований:   2017-05-14 16:17
 Розмір:   4.49 GB 
 Оцінка фільму:   7.4/10 (Голосів: 54)
 На останньому скріншоті - Ґінеш з "Кремнієвої Долини" :)
   
Інші релізи
   Махач вчителів / Fist Fight (2017) AVC Ukr/Eng | Sub Eng Electroz  36 / 0   1.51 GB   2017-05-14 13:17 
   Махач вчителів / Fist Fight (2017) 1080p Ukr/Eng | Sub Eng Electroz  10 / 0   6.68 GB   2017-05-14 13:13 
   Махач вчителів / Fist Fight (2017) Covenant  49 / 0   1.45 GB   2017-05-14 12:23 
bot 
робот


З нами з: 30.09.07
Востаннє: 26.05.05
Повідомлень: 17363

2017-05-14 12:44  
Тему перенесено з Фільми в HD до форуму Анонси релізів


Patriot_ukr

casper101 
Поважний учасник


З нами з: 03.12.09
Востаннє: 17.08.17
Повідомлень: 207

2017-05-14 14:46  
чекаю.
bot 
робот


З нами з: 30.09.07
Востаннє: 26.05.05
Повідомлень: 17363

2017-05-14 16:17  
Тему перенесено з Анонси релізів до форуму Фільми в HD


Patriot_ukr

Ваш часовий пояс: GMT + 2 Години

Нова тема   Відповісти