Формула 1. Сезон 2017. Етап 05. Гран-Прі Іспанії. Кваліфікація (13.05.2017) 720p

Нові коментарі

Нова тема   Відповісти
Автор Повідомлення
sergiyko.5 
Попереджень: 1
Попереджень: 1 


З нами з: 25.02.16
Востаннє: 19.11.17
Повідомлень: 1195

2017-05-13 19:08  
Формула 1. Сезон 2017. Етап 05. Гран-Прі Іспанії. Кваліфікація (13.05.2017) 720p

Формула 1. Сезон 2017. Етап 05. Гран-Прі Іспанії. Кваліфікація (13.05.2017) 720p

Жанр: Формула 1
Телеканал: F1UA

Опис:
Кваліфікація перед 5-м етапом чемпіонату світу Формули 1 Гран Прі Іспанії.


Тривалість: 01:09:42

Відео: кодек: розмір кадру: 1280 х 720 бітрейт: 3380 кб/с
Аудіо: мова: українська переклад: оригінал кодек: 2.0 бітрейт: 160 кб/с
Про файл:

General
Complete name : D:\Torrents\SPORT\F1.2017.05.Spain.Qualifying..720p.Ukr.mp4
Format : MPEG-4
Format profile : Base Media
Codec ID : isom
File size : 1.73 GiB
Duration : 1h 9mn
Overall bit rate : 3 553 Kbps
Writing application : Lavf57.66.102

Video
ID : 1
Format : AVC
Format/Info : Advanced Video Codec
Format profile : [email protected]
Format settings, CABAC : Yes
Format settings, ReFrames : 4 frames
Codec ID : avc1
Codec ID/Info : Advanced Video Coding
Duration : 1h 9mn
Bit rate : 3 384 Kbps
Nominal bit rate : 3 000 Kbps
Width : 1 280 pixels
Height : 720 pixels
Display aspect ratio : 16:9
Frame rate mode : Constant
Frame rate : 30.000 fps
Color space : YUV
Chroma subsampling : 4:2:0
Bit depth : 8 bits
Scan type : Progressive
Bits/(Pixel*Frame) : 0.122
Stream size : 1.65 GiB (95%)
Writing library : core 148 r2762 90a61ec
Encoding settings : cabac=1 / ref=1 / deblock=1:0:0 / analyse=0x3:0x113 / me=hex / subme=2 / psy=1 / psy_rd=1.00:0.00 / mixed_ref=0 / me_range=16 / chroma_me=1 / trellis=0 / 8x8dct=1 / cqm=0 / deadzone=21,11 / fast_pskip=1 / chroma_qp_offset=0 / threads=12 / lookahead_threads=4 / sliced_threads=0 / nr=0 / decimate=1 / interlaced=0 / bluray_compat=0 / constrained_intra=0 / bframes=3 / b_pyramid=2 / b_adapt=1 / b_bias=0 / direct=1 / weightb=1 / open_gop=0 / weightp=1 / keyint=250 / keyint_min=25 / scenecut=40 / intra_refresh=0 / rc_lookahead=10 / rc=cbr / mbtree=1 / bitrate=3000 / ratetol=1.0 / qcomp=0.60 / qpmin=0 / qpmax=69 / qpstep=4 / vbv_maxrate=3000 / vbv_bufsize=3000 / nal_hrd=none / filler=1 / ip_ratio=1.40 / aq=1:1.00

Audio
ID : 2
Format :
Format/Info : Advanced Audio Codec
Format profile : LC
Codec ID : 40
Duration : 1h 9mn
Bit rate mode : Constant
Bit rate : 160 Kbps
Channel(s) : 2 channels
Channel positions : Front: L R
Sampling rate : 44.1 KHz
Compression mode : Lossy
Stream size : 79.8 MiB (5%)
Title : simple_aac
Скріншоти:


 Трекер:    Зареєстрований   

Завантажити / скачати торрент



відео для новачків



 Зареєстрований:   2017-05-13 19:08
 Розмір:   1.73 GB 
 Оцінка:   10/10 (Голосів: 1)
   
sir_goretz 
Новенький


З нами з: 01.04.17
Востаннє: 11.11.17
Повідомлень: 1

2017-05-19 21:47  
роздача закінчилась?

Додано через 1 годину 27 хвилин 37 секунд:

дякую

Dossik 
Новенький


З нами з: 17.05.17
Востаннє: 17.11.17
Повідомлень: 13

2017-05-22 13:36  
Йо...станьте на роздачу)))
Dossik 
Новенький


З нами з: 17.05.17
Востаннє: 17.11.17
Повідомлень: 13

2017-05-23 11:31  
Дякую)))
Ваш часовий пояс: GMT + 2 Години

Нова тема   Відповісти