Сага про Бйорна / The Saga Of Biorn (2011) 720p

Нові коментарі

Нова тема   Відповісти
Автор Повідомлення
skulptorrr 
Свій


З нами з: 08.03.10
Востаннє: 25.11.20
Повідомлень: 129

2017-05-13 02:04  
Сага про Бйорна / The Saga Of Biorn (2011) 720p



Жанр: Драма, Комедія
Країна: Данія



Переклад: U Ku Shu
Ролі озвучують: U Ku Shu

Кінокомпанія: ------
Режисер: Патрік Вотберг / Patrick Voetberg
Ролі озвучують: U Ku Shu ( FanDubSheep )

Тривалість: 00:07:11
Якість:
Відео:
кодек:
розмір кадру: 1280 х 720
бітрейт: 3 241 кб/с

Аудіо:
мова: українська
переклад: одноголосий закадровий
кодек: 2.0
бітрейт: 317 кб/с

Сюжет: Старий вікінг Бйорн сповнений рішучості потрапити до Вальгалли, де браві воїни проводять своє загробне життя. Але що б потрапити туди, необхідно достойно пасти в запеклому бою... Але в якийсь момент він стикається з проблемою, що правильно померти не так-то вже й легко....
Info

General
Complete name : C:\Users\UKS\Videos\Movavi Library\The Saga Of Biorn.2011.AVC.2VO_3.mp4
Format : MPEG-4
Format profile : Base Media
Codec ID : isom
File size : 183 MiB
Duration : 7mn 11s
Overall bit rate : 3 564 Kbps
Encoded date : UTC 2017-05-12 23:54:04
Tagged date : UTC 2017-05-12 23:54:04
Writing application : Lavf57.56.100

Video
ID : 1
Format : AVC
Format/Info : Advanced Video Codec
Format profile : [email protected]
Format settings, CABAC : Yes
Format settings, ReFrames : 2 frames
Format settings, GOP : M=1, N=25
Codec ID : avc1
Codec ID/Info : Advanced Video Coding
Duration : 7mn 11s
Bit rate : 3 241 Kbps
Width : 1 280 pixels
Height : 720 pixels
Display aspect ratio : 16:9
Frame rate mode : Constant
Frame rate : 25.000 fps
Color space : YUV
Chroma subsampling : 4:2:0
Bit depth : 8 bits
Scan type : Progressive
Bits/(Pixel*Frame) : 0.141
Stream size : 167 MiB (91%)
Language : English
Encoded date : UTC 2017-05-12 23:54:04
Tagged date : UTC 2017-05-12 23:54:04

Audio
ID : 2
Format :
Format/Info : Advanced Audio Codec
Format profile : LC
Codec ID : 40
Duration : 7mn 11s
Bit rate mode : Constant
Bit rate : 317 Kbps
Channel(s) : 2 channels
Channel positions : Front: L R
Sampling rate : 48.0 KHz
Compression mode : Lossy
Stream size : 16.3 MiB (9%)
Language : English
Encoded date : UTC 2017-05-12 23:54:04
Tagged date : UTC 2017-05-12 23:54:04
Скріншоти



Джерело озвучення:


Особиста оцінка: 10 - без зайвих вагань рекомендую всім!


Авторський реліз (завантажувати можна без реєстрації)
 Трекер:    Зареєстрований   

Завантажити / скачати фільм українською



відео для новачків



 Зареєстрований:   2017-05-13 02:06
 Розмір:   183 MB 
 Оцінка фільму:   10/10 (Голосів: 17)
   
Patriot_ukr 
VIP


З нами з: 06.04.15
Востаннє: 04.01.21
Повідомлень: 2258

2017-05-13 13:29  
Назву теми оформлено неправильно. Має бути:
українська назва/оригінальна назва/(рік)/якість. Це реліз у якості hd, тому має бути оригінальна доріжка
skulptorrr написано:
Бьйорна
Покажіть мені "ь" у імені "Björn". Є скандинавське ім'я - Бйорн, а па рузкє він саме з "ь" - "Бьёрн"...
Hentaihunter 
VIP


З нами з: 16.08.08
Востаннє: 19.01.21
Повідомлень: 2555

2017-05-13 14:27  
Без оригінального звуку піде в смітник.
EvGaS 
Відео Гуртом - субтитрування
Відео Гуртом - субтитрування


З нами з: 27.02.12
Востаннє: 31.07.19
Повідомлень: 5663

2017-05-13 15:33  
Patriot_ukr, просто людині подобаються російські транслітерації, а з ними й копіювання російських назв.
11FrYkT 
Модератор відео


З нами з: 20.02.11
Востаннє: 20.01.21
Повідомлень: 7101

2017-05-16 10:28  
skulptorrr написано:
Сага про Бьйорна / The Saga Of Biorn (2011) 720p Ukr

Вказати якість
Цитата:
Режисер: Patrick Voetberg
Ролі озвучують: U Ku Shu ( FanDubSheep )

має бути українською

Цитата:
6. Оригінальна доріжка обов'язкова у всіх релізах HD, крім 720p-mini та багатосерійних.


Вказати джерело озвучення

eXteSy- 
VIP


З нами з: 06.04.09
Востаннє: 20.01.21
Повідомлень: 2255

2017-05-16 19:30  
Він взагалі повинен бути в розділі "Короткометражні".
bot 
робот


З нами з: 30.09.07
Востаннє: 26.05.05
Повідомлень: 26934

2017-06-05 06:56  
Тему перенесено з Мультфільми до форуму Короткометражні


11FrYkT

EvGaS 
Відео Гуртом - субтитрування
Відео Гуртом - субтитрування


З нами з: 27.02.12
Востаннє: 31.07.19
Повідомлень: 5663

2017-06-05 07:11  
В релізі є два посилання на вЗобань. Це порушує закон України та політику трекера водночас.

Прохання прибрати посилання на сторонній ресурс.

skulptorrr 
Свій


З нами з: 08.03.10
Востаннє: 25.11.20
Повідомлень: 129

2017-06-05 12:01  
Який закон України це порушує? Зішлись на конкретний закон.
І перестань говорити про речі, про котрі не маєш поняття з такою впевненістю. Це погана звичка.

З приводу того що це порушує політику трекера -- згоден. І в дану секунду я чекаю на цю тему офіційної відповіді адміністрації/модерації з приводу цього в іншій гілці. До того як отримаю офіційну відповідь нічого змінювати не буду в жодній з своїх тем, що б не гємориться з повторними змінами туди-сюди.

Patriot_ukr 
VIP


З нами з: 06.04.15
Востаннє: 04.01.21
Повідомлень: 2258

2017-06-05 12:08  
skulptorrr написано:
нічого змінювати не буду в жодній з своїх тем
Вже й не треба, усе змінив 11FrYkT
EvGaS 
Відео Гуртом - субтитрування
Відео Гуртом - субтитрування


З нами з: 27.02.12
Востаннє: 31.07.19
Повідомлень: 5663

2017-06-05 12:16  
Patriot_ukr написано:
Вже й не треба, усе змінив 11FrYkT

Я б так не сказав, посилання на вЗобань все ще стирчить аж у чотирьох релізах.

Patriot_ukr 
VIP


З нами з: 06.04.15
Востаннє: 04.01.21
Повідомлень: 2258

2017-06-05 12:20  
EvGaS, ааа, так у кожній темі їх було по двоє, а не по одній...
EvGaS 
Відео Гуртом - субтитрування
Відео Гуртом - субтитрування


З нами з: 27.02.12
Востаннє: 31.07.19
Повідомлень: 5663

2017-06-05 12:33  
Patriot_ukr написано:
ааа, так у кожній темі їх було по двоє, а не по одній...

Наче це було не вочевидь. Rolleyes (3)

Ваш часовий пояс: GMT + 2 Години

Нова тема   Відповісти