Євробачення 2017. Другий півфінал / Eurovision 2017. Second Semi-Final (11.05.2017) 1080p Ukr/Bel/Int

Нові коментарі

Нова тема   Відповісти
Автор Повідомлення
sergiyko.5 
VIP


З нами з: 25.02.16
Востаннє: 20.08.17
Повідомлень: 995

2017-05-12 13:57  
Євробачення 2017. Другий півфінал / Eurovision 2017. Second Semi-Final (11.05.2017) 1080p Ukr/Bel/Int

Євробачення 2017. Другий півфінал / Eurovision 2017. Second Semi-Final (11.05.2017) 1080p Ukr/Bel/Int

Жанр: Пісенний конкурс
Країна: Україна
Телеканал: Перший Національний (аудіо 1)
Мова коментарів: українська (Тетяна Терехова та Андрій Городиський), білоруська

Опис:
Другий півфінал Євробачення-2017 відбувся у Києві у четрер, 11 травня о 22:00 годині за київським часом.

За місце у фіналі конкурсу поборолись виконавці з 18 країн.


Треклист:
1. Сербія, Тіяна Богичевич — In Too Deep;
2. Австрія, Натан Трент — Running on air;
3. Македонія, Яна Бурческа — Dance alone;
4. Мальта, Клаудія Фаніелло – Breathlessly;
5. Румунія, Ілінка и Алекс Флоря — Yodel it!;
6. Нідерланди, група OG3NE — Lights and shadows;
7. Угорщина, Йоці Папай — Origo;
8. Данія, Аня Ніссен — Where Am I;
9. Ірландія, Брендан Мюррей — Dying To Try;
10. Сан-Маріно, Валентина Монетта и Джиммі Уілсон — Spirit of the night;
11. Хорватія, Жак Худек — My friend;
12. Норвегія, JOWST — Grab The Moment;
13. Швейцарія, група Timebelle – Apollo;
14. Білорусь, група Naviband — «Гісторыя майго жыцця»;
15. Болгарія, Крістіан Костов — Beautiful mess;
16. Литва, група Fusedmarc — Rain of revolution;
17. Естонія, Койт Тооме и Лаура – Verona;
18. Ізраіль, IMRI — Spirit of the night.

Тривалість: 02:14:59
Якість:

Відео: кодек: розмір кадру: 1920 х 1080 бітрейт: 4000 кб/с
Аудіо #1: мова: українська голос за кадром: двоголосий закадровий (Тетяна Терехова та Андрій Городиський) кодек: 2.0 бітрейт: 192 кб/с
Аудіо #2: мова: білоруська кодек: 2.0 бітрейт: 192 кб/с
Аудіо #3: інтершум кодек: 2.0 бітрейт: 256 кб/с
Про файл:
General
Unique ID : 246017120708603422910221967554320535331 (0xB9152C88AC42BAB19563441E67280F23)
Complete name : D:\Torrents\MUSIC\Eurovision.2017.Second Semi-Final.11.05.2017..1080p.Ukr.Bel.
Format :
Format version : Version 4 / Version 2
File size : 4.48 GiB
Duration : 2h 15mn
Overall bit rate : 4 750 Kbps
Movie name : Eurovision.2017.Second Semi-Final by sergiyko
Encoded date : UTC 2017-05-12 10:26:16
Writing application : mkvmerge v9.8.0 ('Kuglblids') 64bit
Writing library : libebml v1.3.4 + libmatroska v1.4.5
DURATION : 02:15:00.064000000
NUMBER_OF_FRAMES : 253127
NUMBER_OF_BYTES : 194401536
_STATISTICS_WRITING_APP : mkvmerge v9.8.0 ('Kuglblids') 64bit
_STATISTICS_WRITING_DATE_UTC : 2017-05-12 10:26:16
_STATISTICS_TAGS : BPS DURATION NUMBER_OF_FRAMES NUMBER_OF_BYTES

Video
ID : 1
Format : AVC
Format/Info : Advanced Video Codec
Format profile : [email protected]
Format settings, CABAC : Yes
Format settings, ReFrames : 2 frames
Codec ID : V_MPEG4/ISO/AVC
Duration : 2h 15mn
Bit rate : 4 015 Kbps
Width : 1 920 pixels
Height : 1 080 pixels
Display aspect ratio : 16:9
Frame rate mode : Constant
Frame rate : 25.000 fps
Color space : YUV
Chroma subsampling : 4:2:0
Bit depth : 8 bits
Scan type : Progressive
Bits/(Pixel*Frame) : 0.077
Stream size : 3.79 GiB (85%)
Title : Eurovision.2017.Second Semi-Final
Language : English
Default : Yes
Forced : No
Color range : Limited
Color primaries : BT.709
Transfer characteristics : BT.709
Matrix coefficients : BT.709

Audio #1
ID : 2
Format : AC-3
Format/Info : Audio Coding 3
Mode extension : CM (complete main)
Format settings, Endianness : Big
Codec ID : A_AC3
Duration : 2h 15mn
Bit rate mode : Constant
Bit rate : 192 Kbps
Channel(s) : 2 channels
Channel positions : Front: L R
Sampling rate : 48.0 KHz
Compression mode : Lossy
Stream size : 185 MiB (4%)
Title : UKR Перший Національний
Language : Ukrainian
Default : Yes
Forced : Yes

Audio #2
ID : 3
Format : AC-3
Format/Info : Audio Coding 3
Mode extension : CM (complete main)
Format settings, Endianness : Big
Codec ID : A_AC3
Duration : 2h 15mn
Bit rate mode : Constant
Bit rate : 192 Kbps
Channel(s) : 2 channels
Channel positions : Front: L R
Sampling rate : 48.0 KHz
Compression mode : Lossy
Stream size : 185 MiB (4%)
Title : BEL Беларусь 1
Language : Belarusian
Default : No
Forced : No

Audio #3
ID : 4
Format : AC-3
Format/Info : Audio Coding 3
Mode extension : CM (complete main)
Format settings, Endianness : Big
Codec ID : A_AC3
Duration : 2h 15mn
Bit rate mode : Constant
Bit rate : 256 Kbps
Channel(s) : 2 channels
Channel positions : Front: L R
Sampling rate : 44.1 KHz
Compression mode : Lossy
Stream size : 247 MiB (5%)
Default : No
Forced : No

Menu
00:05:14.856 : :Глава 01
00:09:03.351 : :Глава 02
00:11:20.840 : :Глава 03
00:15:23.032 : :Глава 04
00:19:14.819 : :Глава 05
00:23:15.495 : :Глава 06
00:27:14.619 : :Глава 07
00:31:07.087 : :Глава 08
00:37:46.834 : :Глава 09
00:41:50.519 : :Глава 10
00:45:45.316 : :Глава 11
00:49:41.845 : :Глава 12
00:53:41.849 : :Глава 13
00:57:44.989 : :Глава 14
01:01:40.209 : :Глава 15
01:08:39.561 : :Глава 16
01:12:38.957 : :Глава 17
01:16:38.791 : :Глава 18
01:20:46.470 : :Глава 19
01:24:48.132 : :Глава 20
01:41:01.761 : :Глава 21
01:47:18.072 : :Глава 22
01:55:53.451 : :Глава 23

Скріншоти:




Автор зведення:
sergiyko



Золотий реліз (завантажене не впливає на рейтинг)
 Трекер:    Зареєстрований   

Завантажити / скачати передачу українською



відео для новачків



 Зареєстрований:   2017-05-12 13:57
 Розмір:   4.48 GB 
 Оцінка передачі:   8.4/10 (Голосів: 11)
   
EvGaS 
Відео Гуртом - підтримка та поширення
Відео Гуртом - підтримка та поширення


З нами з: 27.02.12
Востаннє: 20.08.17
Повідомлень: 3332

2017-05-12 16:07  
Вчора почав засинати від нудьги десь на шостій пісні…

Хоч додивлюсь — раптом станеться неймовірне, й буде якась вартісна пісня. Бо таке враження, що адміністрація конкурсу підбирала пісні більш за епатажем, як у якомусь цирку шапіто, а не за самі пісні чи виконання. Як вони ті пісні обирають, що воно усе «таке» — хто зна. І наче ж мали б таланти з усієї Європи збирати, а… серйозно, усілякі позаконкурсні пісні, підготовлені нашими «для заповнення часу та розігріву», цікавіші за конкурсні, ну що ж це таке. Wide grin

Додано через 16 хвилин 28 секунд:

Данія (8) схоже, відзначилася найбільшими феєрверками.
Дивимось далі…

Додано через 1 хвилину 26 секунд:

Ірландія (9) — якийсь ірландський Бібер… перемотка, перемотка, бережемо нерви…

Додано через 7 хвилин 12 секунд:

Хорватія (11), людина-патефон. Хто хоче підійняти собі настрій майже театром одного актора — нехай дивиться. Хоч якийсь веселий прикол за довгий час шоу.

Додано через 15 хвилин 28 секунд:

(14) — мабуть, перша конкурсна пісня, від якої отримав задоволення. Білоруси цього року мають бути в лідерах.

sora Sho Takarai 
Новенький


З нами з: 01.01.09
Востаннє: 20.08.17
Повідомлень: 7

2017-05-12 19:49  
Паралельно оновлюйте фб Притули - і чудові враження Вам забезпечені ))
TeronUA 
VIP


З нами з: 13.02.09
Востаннє: 19.08.17
Повідомлень: 283

2017-05-13 08:58  
Норвегія, Білорусь та Хорватія сподобались!))) Решта це просто жах!
Ваш часовий пояс: GMT + 2 Години

Нова тема   Відповісти