Як уникнути кари за вбивство (Сезон 3, Серії 1-2) / How to Get Away with Murder (Season 3, Episodes 1-2) (2016 - 2017) 720p Eng | sub Ukr

Нові коментарі

Нова тема   Відповісти
Автор Повідомлення
Петров Микола 
Поважний учасник


З нами з: 15.08.14
Востаннє: 19.08.17
Повідомлень: 195

2017-05-12 09:17  
Як уникнути кари за вбивство (Сезон 3, Серії 1-2) / How to Get Away with Murder (Season 3, Episodes 1-2) (2016 - 2017) 720p Eng | sub Ukr



Жанр: кримінальний, детектив, трилер
Країна: США



Кінокомпанія: ShondaLand, Nowalk Entertainment, ABC Studios
Режисер: Білл Д'Еліа, Майкл Оффер.
Актори: Віола Девіс, Біллі Браун, Альфред Енох, Джек Фалахі, Кеті Фіндлей, Метт Макгоррі, Карла Соуса, Чарлі Вебер, Лайза Вайл.

Сюжет:
Захоплюючий кримінальний трилер про групу амбітних студентів юридичного університету та їх блискучого і загадкового викладача - професора права Енналіз Кітінг. Її курс «Як уникнути покарання за вбивство» передбачає глибоке вивчення світу юриспруденції - на практиці, а не в теорії. Всі вони - майбутні адвокати та їх викладач - виявляються втягнені в розслідування заплутаного вбивства, яке приголомшить весь університет і змінить їхні життя ...

Шукаємо редактора​, за детальнішою інформацією пишіть в Приват - Baida-Nemova

Тривалість: 1 серія ~42 хв.
Перелік серій
1 серія - Ми тепер хороші люди/We're Good People Now
2 серія - Є речі гірші за вбивство/There Are Worse Things Than Murder
3 серія - /Always Bet Black
4 серія - /Don't Tell Annalise
5 серія - /It's About Frank
6 серія - /Is Somebody Really Dead?
7 серія - /Call It Mother's Intuition
8 серія - /No More Blood
9 серія - /Who's Dead?
10 серія - /We're Bad People
11 серія - /Not Everything's About Annalise
12 серія - /Go Cry Somewhere Else
13 серія - /There's Something Wrong with You
14 серія - /The Truth Has Been Said
15 серія - /Save Them, Not Me
Якість:
Відео:
кодек:
розмір кадру: 1 280 х 716
бітрейт: 3 690 кб/с

Аудіо:
мова: англійська
переклад: оригінал
кодек: 5.1
бітрейт: 384 кб/с

Субтитри:
мова: українська, переклад - Baida-Nemova, корекція - Tetna
тип: програмні (м'які)
формат: *.srt
Info
General
Unique ID : 231814128049512300507394948834489479279 (0xAE65C6EE56A9944B38E1FAD326BF306F)
Complete name : D:\Релізи\How.To.Get.Away.With.Murder.(Season 3) 720p [Baida]\How.to.Get.Away.with.Murder.S03E01.720p.HDTV.-KILLERS.
Format :
Format version : Version 4 / Version 2
File size : 1.23 GiB
Duration : 42 min 19 s
Overall bit rate : 4 157 kb/s
Encoded date : UTC 2016-09-23 00:03:57
Writing application : mkvmerge v9.0.1 ('Obstacles') 64bit
Writing library : libebml v1.3.3 + libmatroska v1.4.4

Video
ID : 1
Format : AVC
Format/Info : Advanced Video Codec
Format profile : [email protected]
Format settings, CABAC : Yes
Format settings, ReFrames : 5 frames
Codec ID : V_MPEG4/ISO/AVC
Duration : 42 min 19 s
Bit rate : 3 690 kb/s
Width : 1 280 pixels
Height : 716 pixels
Display aspect ratio : 16:9
Frame rate mode : Constant
Frame rate : 23.976 (24000/1001) FPS
Color space : YUV
Chroma subsampling : 4:2:0
Bit depth : 8 bits
Scan type : Progressive
Bits/(Pixel*Frame) : 0.168
Stream size : 1.09 GiB (89%)
Writing library : core 148 r2705 3f5ed56
Encoding settings : cabac=1 / ref=5 / deblock=1:0:0 / analyse=0x3:0x113 / me=umh / subme=8 / psy=1 / psy_rd=1.00:0.00 / mixed_ref=1 / me_range=16 / chroma_me=1 / trellis=1 / 8x8dct=1 / cqm=0 / deadzone=21,11 / fast_pskip=1 / chroma_qp_offset=-2 / threads=22 / lookahead_threads=3 / sliced_threads=0 / nr=0 / decimate=1 / interlaced=0 / bluray_compat=0 / constrained_intra=0 / bframes=3 / b_pyramid=2 / b_adapt=2 / b_bias=0 / direct=3 / weightb=1 / open_gop=0 / weightp=2 / keyint=250 / keyint_min=23 / scenecut=40 / intra_refresh=0 / rc_lookahead=50 / rc=crf / mbtree=1 / crf=18.0 / qcomp=0.60 / qpmin=0 / qpmax=69 / qpstep=4 / ip_ratio=1.40 / aq=1:1.00
Default : Yes
Forced : No
Color range : Limited
Matrix coefficients : BT.709

Audio
ID : 2
Format : AC-3
Format/Info : Audio Coding 3
Format settings, Endianness : Big
Codec ID : A_AC3
Duration : 42 min 19 s
Bit rate mode : Constant
Bit rate : 384 kb/s
Channel(s) : 6 channels
Channel positions : Front: L C R, Side: L R, LFE
Sampling rate : 48.0 kHz
Frame rate : 31.250 FPS (1536 spf)
Bit depth : 16 bits
Compression mode : Lossy
Stream size : 116 MiB (9%)
Service kind : Complete Main
Default : Yes
Forced : No
Скріншоти




Джерело: &
Особиста оцінка: 8 - мені сподобалося


Авторський реліз (завантажувати можна без реєстрації)
 Трекер:    Зареєстрований   

Завантажити / скачати серіал українською



відео для новачків



 Зареєстрований:   2017-05-17 14:48
 Розмір:   2.25 GB 
 Оцінка серіалу:   10/10 (Голосів: 1)
   
Петров Микола 
Поважний учасник


З нами з: 15.08.14
Востаннє: 19.08.17
Повідомлень: 195

2017-05-17 14:50  
Додано 1-2 серії. Приємного перегляду!



Прохання підтримати роздачу.

tetna 
VIP


З нами з: 21.11.14
Востаннє: 18.08.17
Повідомлень: 371

2017-06-01 08:59  
певно, роботу над релізом (при)зупинено.
Петров Микола 
Поважний учасник


З нами з: 15.08.14
Востаннє: 19.08.17
Повідомлень: 195

2017-06-15 12:22  
Третю серію можна завантажити -тут.
Ваш часовий пояс: GMT + 2 Години

Нова тема   Відповісти