Залягти на дно в Брюге / Одного разу в Брюге / In Bruges (2008) 1080p Ukr/Eng | Sub Eng

Нові коментарі

Нова тема   Відповісти
Автор Повідомлення
yuretsua 
Частий відвідувач


З нами з: 05.09.11
Востаннє: 16.10.17
Повідомлень: 43

2017-05-12 02:34  
Залягти на дно в Брюге / Одного разу в Брюге / In Bruges (2008) 1080p Ukr/Eng | Sub Eng

Залягти на дно в Брюге / Одного разу в Брюге / In Bruges (2008) 1080p Ukr/Eng | Sub Eng


Жанр: кримінальний, трилер, драма, чорна комедія
Країна: США, Великобританія



Кінокомпанія: Focus Features, Film4, Blueprint Pictures, Scion Films
Режисер: Мартін МакДонаф (Martin McDonagh)
Актори: Колін Фаррелл (Colin Farrell), Брендан Ґлісон (Brendan Gleeson), Рейф Файнс (Ralph Fiennes), Клеменс Поесі (Clémence Poésy)

Сюжет:
Два кілери, Рей і Кен, вирушають у відпустку після складної роботи в Лондоні. Їх бос Гарі знаходить для них спокійне на перший погляд містечко в Бельгії — у місті Брюге, де виявляється набагато гарячіше у плані небезпек, ніж у пожвавленому Лондоні.


Тривалість: 01:46:49
Якість: 1080p
Відео:
кодек:
розмір кадру: 1920 x 814
бітрейт: 17200 кб/с

Аудіо # 1:
мова: українська
переклад: багатоголосий закадровий
кодек: 5.1
бітрейт: 448 кб/с
Інформація про озвучування
Українською мовою озвучено Так Треба Продакшн на замовлення Аврора-Дистриб'юшн
Ролі озвучили: Колін Фаррелл/Рей — Юрій Гребельник, Брендан Ґлісон — Олег Стальчук
Аудіо # 2:
мова: англійська
переклад: оригінал
кодек: 5.1
бітрейт: 1509 кб/с

Субтитри # 1-2:
мова: англійська (повні, SDH)
тип: програмні (м'які)
формат: *.srt

Збережені оригінальні чаптери як на Blu-ray.
Info
General
Unique ID : 222403003232679154186782503996091878564 (0xA75142A743988973B93E16A1A4494CA4)
Complete name : D:\torrents\Films\In Bruges (2008) [Ukr, Eng] 1080p [Hurtom].
Format :
Format version : Version 4 / Version 2
File size : 14.7 GiB
Duration : 1 h 46 min
Overall bit rate : 19.6 Mb/s
Movie name : In.Bruges.2008.1080p.BluRay..-CtrlHD
Encoded date : UTC 2017-05-11 23:07:24
Writing application : mkvmerge v11.0.0 ('Alive') 64bit
Writing library : libebml v1.3.4 + libmatroska v1.4.5
Cover : Yes
Attachments : cover.jpg

Video
ID : 1
Format : AVC
Format/Info : Advanced Video Codec
Format profile : [email protected]
Format settings, CABAC : Yes
Format settings, ReFrames : 5 frames
Codec ID : V_MPEG4/ISO/AVC
Duration : 1 h 46 min
Bit rate : 17.7 Mb/s
Width : 1 920 pixels
Height : 814 pixels
Display aspect ratio : 2.35:1
Frame rate mode : Constant
Frame rate : 24.000 FPS
Color space : YUV
Chroma subsampling : 4:2:0
Bit depth : 8 bits
Scan type : Progressive
Bits/(Pixel*Frame) : 0.472
Stream size : 13.2 GiB (90%)
Writing library : core 122 r2184 5c85e0a
Encoding settings : cabac=1 / ref=5 / deblock=1:-3:-3 / analyse=0x3:0x113 / me=umh / subme=11 / psy=1 / psy_rd=1.28:0.00 / mixed_ref=1 / me_range=16 / chroma_me=1 / trellis=2 / 8x8dct=1 / cqm=0 / deadzone=21,11 / fast_pskip=0 / chroma_qp_offset=-2 / threads=6 / sliced_threads=0 / nr=0 / decimate=0 / interlaced=0 / bluray_compat=0 / constrained_intra=0 / bframes=8 / b_pyramid=2 / b_adapt=2 / b_bias=0 / direct=3 / weightb=1 / open_gop=0 / weightp=2 / keyint=250 / keyint_min=24 / scenecut=40 / intra_refresh=0 / rc=crf / mbtree=0 / crf=18.0 / qcomp=0.72 / qpmin=0 / qpmax=69 / qpstep=4 / ip_ratio=1.30 / pb_ratio=1.20 / aq=1:0.55
Language : English
Default : Yes
Forced : No

Audio #1
ID : 2
Format : AC-3
Format/Info : Audio Coding 3
Format settings, Endianness : Big
Codec ID : A_AC3
Duration : 1 h 46 min
Bit rate mode : Constant
Bit rate : 448 kb/s
Channel(s) : 6 channels
Channel positions : Front: L C R, Side: L R, LFE
Sampling rate : 48.0 kHz
Frame rate : 31.250 FPS (1536 spf)
Bit depth : 16 bits
Compression mode : Lossy
Stream size : 343 MiB (2%)
Title : 5.1 @ 448 kbps - багатоголосий закадровий ТакТребаПродакшн
Language : Ukrainian
Service kind : Complete Main
Default : Yes
Forced : No

Audio #2
ID : 3
Format :
Format/Info : Digital Theater Systems
Mode : 16
Format settings, Endianness : Big
Codec ID : A_DTS
Duration : 1 h 46 min
Bit rate mode : Constant
Bit rate : 1 509 kb/s
Channel(s) : 6 channels
Channel positions : Front: L C R, Side: L R, LFE
Sampling rate : 48.0 kHz
Frame rate : 93.750 FPS (512 spf)
Bit depth : 24 bits
Compression mode : Lossy
Stream size : 1.13 GiB (8%)
Title : 5.1 @ 1536 kbps
Language : English
Default : No
Forced : No

Text #1
ID : 4
Format : UTF-8
Codec ID : S_TEXT/UTF8
Codec ID/Info : UTF-8 Plain Text
Duration : 1 h 40 min
Bit rate : 58 b/s
Count of elements : 1170
Stream size : 43.0 KiB (0%)
Title : SRT
Language : English
Default : No
Forced : No

Text #2
ID : 5
Format : UTF-8
Codec ID : S_TEXT/UTF8
Codec ID/Info : UTF-8 Plain Text
Duration : 1 h 40 min
Bit rate : 59 b/s
Count of elements : 1224
Stream size : 43.9 KiB (0%)
Title : SDH
Language : English
Default : No
Forced : No

Menu
00:00:00.000 : en:Medieval Town
00:04:48.875 : en:Terrible Tourist
00:10:10.041 : en:Seeing the Sights
00:15:29.790 : en:Message Received
00:20:28.998 : en:Holy Blood
00:25:27.248 : en:Purgatory
00:30:42.580 : en:My Hometown
00:36:55.788 : en:Like a Fairy Tale
00:43:28.329 : en:Someone Nice
00:46:59.954 : en:Drowning Sorrows
00:50:43.203 : en:Choose a Side
00:54:29.995 : en:Suicidal
01:00:27.578 : en:Keep on Moving
01:07:21.660 : en:Back to Bruges
01:12:32.243 : en:Capacity to Change
01:17:49.076 : en:In Your Debt
01:23:56.534 : en:Last Chance
01:29:19.825 : en:Will to Live
01:36:45.657 : en:Principles
01:41:17.990 : en:End Titles
Скріншоти




Джерело:
Особиста оцінка: 8 - мені сподобалося


 Трекер:    Зареєстрований   

Завантажити / скачати фільм українською



відео для новачків



 Зареєстрований:   2017-05-12 02:34
 Розмір:   14.68 GB 
 Оцінка фільму:   9.7/10 (Голосів: 17)
   
Nickolassssssss 
Новенький


З нами з: 31.05.14
Востаннє: 18.10.17
Повідомлень: 3

2017-05-13 13:39  
Шикарний фільм, а які актори... Всім раджу.
g-i-l 
Новенький


З нами з: 08.02.16
Востаннє: 16.10.17
Повідомлень: 2

2017-05-20 00:54  
Дивилася декілька разів і ще перегляну. Чудово зіграна Драма К.Фаррелом!
fatum69 
Новенький


З нами з: 10.12.16
Востаннє: 17.10.17
Повідомлень: 7

2017-09-10 10:26  
Прекрасний фільм, атмосфера поглиная від початку до останнього слова Рея.
У кого є сумніви на рахунок перегляду - Ви не пожалкуєте!

Ваш часовий пояс: GMT + 2 Години

Нова тема   Відповісти