Привид в латах 2. Невинність / Ghost in the Shell 2: Innocence (2004) 720р Ukr/Jap

Нові коментарі

Нова тема   Відповісти
Автор Повідомлення
FBRUA 
Модератор розділу аніме


З нами з: 09.07.13
Востаннє: 16.08.17
Повідомлень: 2041

2017-05-11 23:07  
Привид в латах 2. Невинність / Ghost in the Shell 2: Innocence (2004) 720р Ukr/Jap


Жанр: драма, фантастика, кіберпанк
Країна: Японія



Кіностудія / кінокомпанія: Production I.G
Режисер: Мамору Ошіі
Автор оригіналу: Шіро Масамуне
Ролі озвучують: Дан Томоюкі, Танака Ацуко, Сака Осаму, Оцука Акіо та ін.

Опис:
У 2032 році Бато, детектив-кіборг з Дев’ятого відділу антитерористичного Бюро громадської безпеки, розслідує справу про жінку-робота, створену виключно для сексуального задоволення, яка вбила свого господаря.

Тривалість: 01:39:06
Якість: 720p
Контейнер: .
Відео:
кодек:
розмір кадру: 1280 х 688
бітрейт: ~4500 кб/с

Аудіо # 1:
мова: українська
переклад: двоголосий закадровий
кодек: 5.1
бітрейт: 640 кб/с

Аудіо # 2:
мова: японська
переклад: оригінал
кодек: 6.1
бітрейт: 1509 кб/с
Звіт Info

General
Unique ID : 178261708556831599888061337181434533321 (0x861BF4CC744541FDBF7364D0792DD5C9)
Complete name : R:\Ghost in the Shell 2 Innocence\Ghost_in_the_Shell_2_Innocence_(BDRip_x264_720_AC3+).
Format :
Format version : Version 4 / Version 2
File size : 4.60 GiB
Duration : 1 h 39 min
Overall bit rate : 6 651 kb/s
Movie name : Ghost in the Shell 2: Innocence (2004)
Encoded date : UTC 2017-05-11 19:48:46
Writing application : mkvmerge v7.0.0 ('Where We Going') 32bit built on Jun 9 2014 15:08:34
Writing library : libebml v1.3.0 + libmatroska v1.4.1
Cover : Yes
Attachments : cover.jpg

Video
ID : 1
Format : AVC
Format/Info : Advanced Video Codec
Format profile : [email protected]
Format settings, CABAC : Yes
Format settings, ReFrames : 13 frames
Codec ID : V_MPEG4/ISO/AVC
Duration : 1 h 39 min
Bit rate : 4 500 kb/s
Width : 1 280 pixels
Height : 688 pixels
Display aspect ratio : 1.85:1
Frame rate mode : Constant
Frame rate : 23.976 (24000/1001) FPS
Color space : YUV
Chroma subsampling : 4:2:0
Bit depth : 8 bits
Scan type : Progressive
Bits/(Pixel*Frame) : 0.213
Stream size : 3.12 GiB (68%)
Title : Ghost in the Shell 2: Innocence (2004)
Writing library : core 54 svn-635M
Encoding settings : cabac=1 / ref=10 / deblock=1:-1:-1 / analyse=0x3:0x133 / me=hex / subme=7 / brdo=1 / mixed_ref=1 / me_range=16 / chroma_me=1 / trellis=1 / 8x8dct=1 / cqm=2 / deadzone=21,11 / chroma_qp_offset=0 / threads=3 / nr=0 / decimate=1 / mbaff=0 / bframes=6 / b_pyramid=1 / b_adapt=1 / b_bias=0 / direct=1 / wpredb=1 / bime=1 / keyint=250 / keyint_min=25 / scenecut=40(pre) / rc=2pass / bitrate=4500 / ratetol=1.0 / rceq='blurCplx^(1-qComp)' / qcomp=0.60 / qpmin=10 / qpmax=51 / qpstep=4 / cplxblur=20.0 / qblur=0.5 / ip_ratio=1.40 / pb_ratio=1.30 / aq=1:0.7:18.0
Language : Japanese
Default : Yes
Forced : Yes

Audio #1
ID : 2
Format : AC-3
Format/Info : Audio Coding 3
Mode extension : CM (complete main)
Format settings, Endianness : Big
Codec ID : A_AC3
Duration : 1 h 39 min
Bit rate mode : Constant
Bit rate : 640 kb/s
Channel(s) : 6 channels
Channel positions : Front: L C R, Side: L R, LFE
Sampling rate : 48.0 kHz
Frame rate : 31.250 FPS (1536 spf)
Bit depth : 16 bits
Compression mode : Lossy
Stream size : 454 MiB (10%)
Title : двоголосий закадровий від Gwean & Maslinka
Language : Ukrainian
Default : Yes
Forced : Yes

Audio #2
ID : 3
Format :
Format/Info : Digital Theater Systems
Format profile : ES Discrete / Core
Mode : 16
Format settings, Endianness : Big
Codec ID : A_DTS
Duration : 1 h 39 min
Bit rate mode : Constant
Bit rate : 1 509 kb/s
Channel(s) : 7 channels / 6 channels
Channel positions : Front: L C R, Side: L R, Back: C, LFE / Front: L C R, Side: L R, LFE
Sampling rate : 48.0 kHz
Frame rate : 93.750 FPS (512 spf)
Bit depth : 24 bits
Compression mode : Lossy
Stream size : 1.04 GiB (23%)
Title : оригінальна доріжка
Language : Japanese
Default : No
Forced : No

Menu
00:00:00.000 : en:Chapter 1
00:04:35.000 : en:Chapter 2
00:08:16.333 : en:Chapter 3
00:13:06.667 : en:Chapter 4
00:21:04.667 : en:Chapter 5
00:26:20.833 : en:Chapter 6
00:34:04.433 : en:Chapter 7
00:40:03.267 : en:Chapter 8
00:46:00.833 : en:Chapter 9
00:49:43.833 : en:Chapter 10
00:54:47.933 : en:Chapter 11
01:03:18.367 : en:Chapter 12
01:07:31.767 : en:Chapter 13
01:11:36.333 : en:Chapter 14
01:15:12.167 : en:Chapter 15
01:17:26.467 : en:Chapter 16
01:23:44.100 : en:Chapter 17
01:28:04.167 : en:Chapter 18
01:32:34.467 : en:Chapter 19
01:33:43.367 : en:Chapter 20
Скріншоти






--->>>РЕЛІЗ [1080p]<<<--- | --->>>РЕЛІЗ [480p]<<<---

Реліз від:

Переклад: Семченко Д. В.
Ролі озвучили: Gwean & Maslinka
Робота зі звуком: Gwean
Контроль якості: MadGuy
Постер: Лунсар



Авторський реліз (завантажувати можна без реєстрації)
 Трекер:    Зареєстрований   

Завантажити / скачати аніме українською



відео для новачків



 Зареєстрований:   2017-05-11 23:07
 Розмір:   4.6 GB 
 Оцінка аніме:   9.9/10 (Голосів: 11)
   
Ваш часовий пояс: GMT + 2 Години

Нова тема   Відповісти