Assassin's Creed: Кредо вбивці / Assassin's Creed (2016) UHD 4K 2160p HDR H.265 Ukr/Eng | Sub Ukr

Нові коментарі

Нова тема   Відповісти
Автор Повідомлення
Vladuk88 
Новенький


З нами з: 14.10.09
Востаннє: 18.10.17
Повідомлень: 10

2017-05-11 12:49  
Assassin's Creed: Кредо вбивці / Assassin's Creed (2016) UHD 4K 2160p HDR H.265 Ukr/Eng | Sub Ukr
Альтернативні постери










повнорозмірні зображення відкриються по кліку (з натиснутим CTRL чи кліком середньою кнопкою мишки - у новій вкладці)

Жанр: фантастика, фентезі, бойовик, пригодницький
Країна: Велика Британія, Франція, Гонконг, США, Тайвань, Мальта, Канада



Кінокомпанія: Regency Enterprises, Ubisoft, New Regency Pictures
Режисер: Джастін Курзел
Актори: Майкл Фассбендер, Маріон Котіяр, Джеремі Айронс, Брендан Ґлісон, Шарлотта Ремплінґ, Майкл Кеннет Вільямс, Дені Меноше, Аріана Лабед, Халід Абдалла, Ессі Девіс

Сюжет:
Заснований на популярній однойменній відеогрі фентезійний фільм «Assassin’s Creed: Кредо вбивці» розповість історію про головного героя, який робить подорож свідомістю в Іспанію XV століття, перевтілюючись у свого предка-асасина.

За допомогою чуда технологій – машини Анімус – таємничі люди пробуджують у Каллума Лінча спогади про його далекого предка, переносячи його в Іспанію XV століття. Там він відкриває в собі неймовірні вміння та навички, виявляючи, що він – нащадок представника секретного ордену вбивць. Усі ці знання знадобляться йому, коли вже в наш час він вирішить вступити в протистояння з лицарями ордену тамплієрів.


Тривалість: 01:55:48
Якість: UltraHD 4K 2160p
Відео:
джерело: ProRes HQ відеозахоплення з UHD блурей диска
кодек: H.265
розмір кадру: 3840x1608
бітрейт: 19,7 Мб/с
бітова глибина: 10 біт
кольоровий простір: BT.2020 (HDR)
на першоджерелі присутнє застереження написано:
Приросту деталізації в порівнянні з 1080p блурей диском практично немає, наявність розширеного діапазону кольорів (HDR) не відчувається
Всі скарги щодо якості - до халтурників-видавців
Порівняння скріншотів UltraHD Blu-ray 4K та звичайного Blu-ray

UltraHD Blu-ray ProResHQ capture (madvr)<---------->Blu-ray








Аудіо # 1:
мова: українська
переклад: професійний дубльований
кодек: 5.1
бітрейт: 448кб/с

Аудіо # 2:
мова: англійська
переклад: оригінал
кодек: -HD MA 7.1
бітрейт: 5355 кб/с

Джерело озвучення:


Субтитри # 1-2:
мова: українська (форсовані, повні)
тип: програмні (м'які)
формат: *.srt
Info
General
Unique ID : 189984970319239715936103498325250436869 (0x8EEDC63AA1797D70914D004364E66F05)
Complete name : D:\Films\Assassin's.Creed.2016.2160p.UHD.BluRay.HDR.x265(1).
Format :
Format version : Version 4 / Version 2
File size : 20.5 GiB
Duration : 1 h 55 min
Overall bit rate : 25.5 Mb/s
Movie name : Assassin's Creed (2016) - Release for ULTRAHDCLUB
Encoded date : UTC 2017-05-10 12:39:57
Writing application : mkvmerge v9.6.0 ('Slave To Your Mind') 32bit
Writing library : libebml v1.3.4 + libmatroska v1.4.5

Video
ID : 1
Format : HEVC
Format/Info : High Efficiency Video Coding
Format profile : Main [email protected]@High
Codec ID : V_MPEGH/ISO/HEVC
Duration : 1 h 55 min
Bit rate : 19.7 Mb/s
Width : 3 840 pixels
Height : 1 608 pixels
Display aspect ratio : 2.40:1
Frame rate mode : Constant
Frame rate : 23.976 (23976/1000) FPS
Color space : YUV
Chroma subsampling : 4:2:0 (Type 2)
Bit depth : 10 bits
Bits/(Pixel*Frame) : 0.133
Stream size : 15.9 GiB (77%)
Title : Assassin's Creed (2016) - Release for ULTRAHDCLUB
Writing library : x265 2.3+23-97435a0870be:[Windows][GCC 6.3.0][64 bit] 10bit
Encoding settings : cpuid=1050111 / frame-threads=3 / numa-pools=12 / wpp / no-pmode / no-pme / no-psnr / no-ssim / log-level=2 / input-csp=1 / input-res=3840x1608 / interlace=0 / total-frames=0 / level-idc=0 / high-tier=1 / uhd-bd=0 / ref=1 / no-allow-non-conformance / repeat-headers / annexb / aud / hrd / info / hash=0 / no-temporal-layers / open-gop / min-keyint=23 / keyint=250 / bframes=3 / b-adapt=2 / b-pyramid / bframe-bias=0 / rc-lookahead=40 / lookahead-slices=0 / scenecut=40 / no-intra-refresh / ctu=32 / min-cu-size=8 / no-rect / no-amp / max-tu-size=32 / tu-inter-depth=1 / tu-intra-depth=1 / limit-tu=0 / rdoq-level=2 / dynamic-rd=0.00 / signhide / no-tskip / nr-intra=0 / nr-inter=0 / no-constrained-intra / strong-intra-smoothing / max-merge=2 / limit-refs=0 / no-limit-modes / me=2 / subme=7 / merange=57 / temporal-mvp / weightp / weightb / no-analyze-src-pics / no-deblock / no-sao / no-sao-non-deblock / rd=6 / no-early-skip / no-rskip / fast-intra / no-tskip-fast / no-cu-lossless / no-b-intra / rdpenalty=0 / psy-rd=4.00 / psy-rdoq=7.00 / no-rd-refine / analysis-mode=0 / no-lossless / cbqpoffs=0 / crqpoffs=0 / rc=crf / crf=21.5 / qcomp=0.80 / qpstep=1 / stats-write=0 / stats-read=0 / vbv-maxrate=100000 / vbv-bufsize=100000 / vbv-init=0.9 / crf-max=0.0 / crf-min=0.0 / ipratio=1.10 / pbratio=1.00 / aq-mode=3 / aq-strength=1.00 / no-cutree / zone-count=0 / no-strict-cbr / qg-size=32 / no-rc-grain / qpmax=51 / qpmin=0 / sar=0 / overscan=0 / videoformat=5 / range=0 / colorprim=9 / transfer=16 / colormatrix=9 / chromaloc=1 / chromaloc-top=2 / chromaloc-bottom=2 / display-window=0 / master-display=G(13250,34500)B(7500,3000)R(34000,16000)WP(15635,16450)L(10000000,0) / max-cll=0,0 / min-luma=0 / max-luma=1023 / log2-max-poc-lsb=8 / vui-timing-info / vui-hrd-info / slices=1 / opt-qp-pps / opt-ref-list-length-pps / no-multi-pass-opt-rps / scenecut-bias=0.05 / no-opt-cu-delta-qp / no-aq-motion / hdr / no-hdr-opt / refine-level=5
Language : English
Default : Yes
Forced : No
Color range : Limited
Color primaries : BT.2020
Transfer characteristics : SMPTE ST 2084
Matrix coefficients : BT.2020 non-constant
Mastering display color pri : R: x=0.680000 y=0.320000, G: x=0.265000 y=0.690000, B: x=0.150000 y=0.060000, White point: x=0.312700 y=0.329000
Mastering display luminance : min: 0.0000 cd/m2, max: 1000.0000 cd/m2

Audio #1
ID : 2
Format : AC-3
Format/Info : Audio Coding 3
Format settings, Endianness : Big
Codec ID : A_AC3
Duration : 1 h 55 min
Bit rate mode : Constant
Bit rate : 448 kb/s
Channel(s) : 6 channels
Channel positions : Front: L C R, Side: L R, LFE
Sampling rate : 48.0 kHz
Frame rate : 31.250 FPS (1536 spf)
Bit depth : 16 bits
Compression mode : Lossy
Stream size : 370 MiB (2%)
Title : 5.1 @ 448 kbps - DUB, Blu-ray EUR
Language : Ukrainian
Service kind : Complete Main
Default : Yes
Forced : Yes

Audio #2
ID : 3
Format :
Format/Info : Digital Theater Systems
Format profile : MA / Core
Mode : 16
Format settings, Endianness : Big
Codec ID : A_DTS
Duration : 1 h 55 min
Bit rate mode : Variable / Constant
Bit rate : 5 355 kb/s / 1 509 kb/s
Channel(s) : 8 channels / 6 channels
Channel positions : Front: L C R, Side: L R, Back: L R, LFE / Front: L C R, Side: L R, LFE
Sampling rate : 48.0 kHz
Frame rate : 93.750 FPS (512 spf)
Bit depth : 24 bits
Compression mode : Lossless / Lossy
Stream size : 4.32 GiB (21%)
Title : -HD MA 7.1 @ 5355 kbps - Blu-ray EUR
Language : English
Default : No
Forced : No

Text #1
ID : 4
Format : UTF-8
Codec ID : S_TEXT/UTF8
Codec ID/Info : UTF-8 Plain Text
Duration : 1 h 53 min
Bit rate : 7 b/s
Count of elements : 119
Stream size : 6.09 KiB (0%)
Title : Forced, Blu-ray EUR
Language : Ukrainian
Default : No
Forced : No

Text #2
ID : 5
Format : UTF-8
Codec ID : S_TEXT/UTF8
Codec ID/Info : UTF-8 Plain Text
Duration : 1 h 53 min
Bit rate : 38 b/s
Count of elements : 676
Stream size : 31.7 KiB (0%)
Title : Blu-ray EUR
Language : Ukrainian
Default : No
Forced : No

Menu
00:00:00.000 : en:
00:06:04.155 : en:
00:09:32.697 : en:
00:12:47.517 : en:
00:16:47.715 : en:
00:21:07.433 : en:
00:26:56.448 : en:
00:31:55.080 : en:
00:38:06.284 : en:
00:41:43.167 : en:
00:46:33.040 : en:
00:50:10.257 : en:
00:53:04.390 : en:
00:56:17.624 : en:
00:59:26.480 : en:
01:02:32.582 : en:
01:06:37.035 : en:
01:13:08.759 : en:
01:18:45.888 : en:
01:23:01.101 : en:
01:30:17.996 : en:
01:34:18.194 : en:
01:37:45.193 : en:
01:40:51.003 : en:
Скріншоти


Джерело:
Особиста оцінка: 0 - не дивився


 Трекер:    Зареєстрований   

Завантажити / скачати фільм українською



відео для новачків



 Зареєстрований:   2017-05-11 14:17
 Розмір:   20.54 GB 
 Оцінка фільму:   9.1/10 (Голосів: 10)
   
Інші релізи
   Assassin's Creed: Кредо вбивці / Assassin's Creed (2016) 1080p 3D [Half OverUnder] Ukr/Eng | Sub Ukr/Eng igor911  4 / 0   8.34 GB   2017-03-26 13:54 
   Assassin s Creed: Кредо вбивці / Assassin's Creed (2016) 720p Ukr/Eng | Sub Ukr/Eng leicheman  14 / 0   6.19 GB   2017-03-20 15:23 
   Assassin s Creed: Кредо вбивці / Assassin's Creed (2016) 720p-mini Drool  15 / 0   1.98 GB   2017-03-20 12:31 
   Assassin's Creed: Кредо вбивці / Assassin's Creed (2016) Remux 1080p Ukr/Eng | Sub Ukr/Eng famous37  6 / 0   29.18 GB   2017-03-18 13:07 
   Assassin's Creed: Кредо вбивці / Assassin's Creed (2016) [MP4, 640x] apvAltisimo  2 / 0   740 MB   2017-03-16 18:52 
   Assassin's Creed: Кредо вбивці / Assassin's Creed (2016) Covenant  23 / 4   1.45 GB   2017-03-16 13:30 
   Assassin's Creed: Кредо вбивці / Assassin's Creed (2016) Blu-ray 2D/3D EU 1080p Ukr/Multi | Sub Ukr/Multi famous37  1 / 0   46.26 GB   2017-03-16 02:21 
   Assassin s Creed: Кредо вбивці / Assassin's Creed (2016) AVC Ukr/Eng | Sub Ukr/Eng 11FrYkT  14 / 2   1.99 GB   2017-03-15 21:30 
   Assassin's Creed: Кредо вбивці / Assassin's Creed (2016) 1080p Ukr/Eng | Sub Ukr/Eng Electroz  23 / 0   10.36 GB   2017-03-15 18:10 
   Assassin's Creed: Кредо вбивці / Assassin's Creed (2016) Ukr/Eng | Sub Ukr/Eng Gelios  10 / 0   2.18 GB   2017-03-15 16:44 
-VJ- 
VIP


З нами з: 01.11.09
Востаннє: 19.10.17
Повідомлень: 620

2017-05-11 20:09  
А семпл такого добра можна для перевірки компа стягнути?
Українець_з_Умані 
Новенький


З нами з: 19.09.10
Востаннє: 18.10.17
Повідомлень: 12

2017-05-13 01:10  
в мене 4к HDR TV... різниці між 1080р і даним релізом не замітив...
Patriot_ukr 
VIP


З нами з: 06.04.15
Востаннє: 19.10.17
Повідомлень: 1796

2017-05-13 15:24  
Українець_з_Умані
Vladuk88 написано:
риросту деталізації в порівнянні з 1080p блурей диском практично немає, наявність розширеного діапазону кольорів (HDR) не відчувається
Всі скарги щодо якості - до халтурників-видавців

Ваш часовий пояс: GMT + 2 Години

Нова тема   Відповісти