Крейсер (Крейсер Індіанаполіс) / USS Indianapolis: Men of Courage (2016) 720p 2xUkr/Eng | Sub Eng

Нові коментарі

Нова тема   Відповісти
Автор Повідомлення
Anonymous 







2017-05-10 23:42  
Крейсер / USS Indianapolis: Men of Courage (2016) 720p 2xUkr/Eng | Sub Eng

Крейсер (Крейсер Індіанаполіс) / USS Indianapolis: Men of Courage (2016) 720p 2xUkr/Eng | Sub Eng

Жанр: бойовик, воєнний, військовий, історичний
Країна: США



Кінокомпанія: Hannibal Pictures, Patriot pictures, USS Indianapolis Production
Режисер: Маріо Ван Піблз / Mario Van Peebles
Актори: Ніколас Кейдж / Nicolas Cage, Том Сайзмор / Tom Sizemore, Томас Джейн / Thomas Jane, Метт Лантер / Matt Lanter, Джеймс Ремар / James Remar, Брайан Преслі / Brian Presley, Ютака Такеуті / Yutaka Takeuchi, Емілі Теннант / Emily Tennant, Джоні Вактор / Johnny Wactor, Адам Скотт Міллер / Adam Scott Miller, Коді Вокер / Cody Walker, Каллард Гарріс / Callard Harris, Емілі Марі Палмер / Emily Marie Palmer, Вероніка Розаті / Weronika Rosati та інші

Сюжет:
Липень 1945 року. Для Європи Друга світова війна вже закінчилася, але США та Японія ще не вирішили свій конфлікт. Крейсер ВМС США "Індіанополіс" доставив на американську військову базу на острові Тініан в Філіппінському морі деталі для першої атомної бомби "Малюк". Коли корабель повертався на батьківщину, він був підбитий торпедою японців і пішов на дно. Сигнал SOS капітана МакВея не був почутий. І тоді почалося суцільне пекло для тих, хто вижив: сонце і жахливі акули, відсутність питної води і галюцинації, божевілля і страшні муки відчаю...
Засновано на реальних подіях.
Офіційний український трейлер:

Рейтинг MPAA: R - особам до 17 років обов'язкова присутність батьків або дорослого опікуна
Вікова категорія: 16+
Тривалість: 02:09:55
Якість: 720p [CRiME]
Відео:
кодек:
розмір кадру: 1280 х 534
бітрейт: 7572 кб/с [crf=16.2]
примітка: гібридний відеоряд, комбінований з французького та американського блуреїв, написи англійською.
Детальніше+скріншоти порівняння
Цитата:
SOURCE1........:USS Indianapolis: Men of Courage 2016 1080p FRA Blu-ray AVC -HD MA 5.1-4FR
SOURCE2........:USS Indianapolis: Men of Courage 2016 1080p Blu-ray AVC -HD MA 5.1-OCULAR
ENCODER.......: [email protected]

NOTES:
-Applied F3kdb ConditionalFilter and Zones for some scenes with a slight Banding.


Цитата:
NOTES:
-Resone for repack: import forced sub to english sub don't allow. I muxed them in as a separate stream and set as forced & default. Thank mod HDheater.
-Source US:
+dirty line all source 2 pixel left and right.
+Hard sub.
+More banding.
+Significant english.
-Source FRA:
+Less banding, better detail.
+Significant Frecnh.
-2 source have variable bordder and dityline some scence.
-Hybrid:
+US: Create 57 line forced English sub, Significant english (27 scene)
+FRA: Audio, French sub, Main Video, get 2 pixel left and 2 pixel right fix dirty line scence Source US.
+Fixed dirtyline, banding, addbordder some scene.


Hybrid vs FRA vs US vs CRiME


Аудіо # 1:
мова: українська
переклад: багатоголосий закадровий
кодек: 2.0 [стерео]
бітрейт: 192 кб/с

Аудіо # 2:
мова: українська
переклад: багатоголосий закадровий
кодек: 2.0
бітрейт: 192 кб/с

Аудіо # 3:
мова: англійська
переклад: оригінал
кодек: 5.1
бітрейт: 640 кб/с

Субтитри # 1:
мова: українська (форсовані)
тип: програмні (м'які)
формат: *.srt
примітка: на неперекладені підписи до фото та неозвучені діалоги з реальними учасниками подій

Субтитри # 2-3:
мова: англійська (повні, SDH)
тип: програмні (м'які)
формат: *.srt

Збережено оригінальні розділи, як на Blu-ray
Info та log
Код:

Complete name               : USS Indianapolis Men of Courage (2016) [2xUkr,Eng sub.Eng] 720p [Hurtom].
Format                      :
Format version              : Version 4
File size                   : 7.80 GiB
Duration                    : 2 h 9 min
Overall bit rate            : 8 598 kb/s
Movie name                  : Крейсер / USS Indianapolis: Men of Courage (2016) [2xUkr,Eng sub.Eng] 720p [Hurtom]
Released date               : 2016
Encoded date                : UTC 2019-05-28 06:54:32
Writing application         : v34.0.0 ('Sight and Seen') 64-bit
Writing library             : libebml v1.3.7 + v1.5.0
Cover                       : Yes
Comment                     : http://www.imdb.com/title/tt2032572/
Attachments                 : cover.jpg
ARTIST                      : Ніколас Кейдж / Nicolas Cage, Том Сайзмор / Tom Sizemore, Томас Джейн / Thomas Jane, Метт Лантер / Matt Lanter, Джеймс Ремар / James Remar, Брайан Преслі / Brian Presley, Ютака Такеуті / Yutaka Takeuchi, Емілі Теннант / Emily Tennant, Джоні Вактор / Johnny Wactor, Адам Скотт Міллер / Adam Scott Miller, Коді Вокер / Cody Walker, Каллард Гарріс / Callard Harris, Емілі Марі Палмер / Emily Marie Palmer, Вероніка Розаті / Weronika Rosati та інші
DIRECTOR                    : Маріо Ван Піблз / Mario Van Peebles
GENRE                       : бойовик, воєнний, військовий, історичний
SYNOPSIS                    : Липень 1945 року. Для Європи Друга світова війна вже закінчилася, але США та Японія ще не вирішили свій конфлікт. Крейсер ВМС США "Індіанополіс" доставив на американську військову базу на острові Тініан в Філіппінському морі деталі для першої атомної бомби "Малюк". Коли корабель повертався на батьківщину, він був підбитий торпедою японців і пішов на дно. Сигнал SOS капітана МакВея не був почутий. І тоді почалося суцільне пекло для тих, хто вижив: сонце і жахливі акули, відсутність питної води і галюцинації, божевілля і страшні муки відчаю...
Url                         : https://toloka.to/t81868

Video
ID                          : 1
Format                      : AVC
Format/Info                 : Advanced Video Codec
Format profile              : [email protected]
Format settings             : CABAC / 12 Ref Frames
Format settings, CABAC      : Yes
Format settings, Reference  : 12 frames
Codec ID                    : V_MPEG4/ISO/AVC
Duration                    : 2 h 9 min
Bit rate                    : 7 572 kb/s
Width                       : 1 280 pixels
Height                      : 534 pixels
Display aspect ratio        : 2.40:1
Frame rate mode             : Constant
Frame rate                  : 23.976 (24000/1001) FPS
Color space                 : YUV
Chroma subsampling          : 4:2:0
Bit depth                   : 8 bits
Scan type                   : Progressive
Bits/(Pixel*Frame)          : 0.462
Stream size                 : 6.87 GiB (88%)
Title                       : Крейсер / USS Indianapolis: Men of Courage (2016) 720p (Hybrid) [CRiME, HDClub]
Writing library             : core 148 r2721 72d53ab
Encoding settings           : cabac=1 / ref=12 / deblock=1:-3:-3 / analyse=0x3:0x133 / me=umh / subme=10 / psy=1 / psy_rd=1.05:0.00 / mixed_ref=1 / me_range=64 / chroma_me=1 / trellis=2 / 8x8dct=1 / cqm=0 / deadzone=21,11 / fast_pskip=0 / chroma_qp_offset=-2 / threads=6 / lookahead_threads=1 / sliced_threads=0 / nr=0 / decimate=0 / interlaced=0 / bluray_compat=0 / constrained_intra=0 / bframes=10 / b_pyramid=2 / b_adapt=2 / b_bias=0 / direct=3 / weightb=1 / open_gop=0 / weightp=2 / keyint=250 / keyint_min=23 / scenecut=40 / intra_refresh=0 / rc_lookahead=60 / rc=crf / mbtree=0 / crf=16.2 / qcomp=0.65 / qpmin=0 / qpmax=69 / qpstep=4 / vbv_maxrate=62500 / vbv_bufsize=78125 / crf_max=0.0 / nal_hrd=none / filler=0 / ip_ratio=1.25 / pb_ratio=1.15 / aq=3:0.70 / zones=30647,31875,crf=15/31930,33922,crf=15/34425,34907,crf=15/38631,38946,crf=15/43046,43324,crf=15/47054,49001,crf=15/51096,53796,crf=15/54839,55924,crf=15/56390,57000,crf=15/58047,60654,crf=15/61000,61179,crf=15/77644,77801,crf=15/90199,90256,crf=13/105989,106137,crf=15/108564,113576,crf=15/120188,120490,crf=15/133744,133922,crf=15/134313,134354,crf=15/135984,136437,crf=15/155788,156545,crf=15/158670,160050,crf=15
Language                    : English
Default                     : Yes
Forced                      : No

Audio #1
ID                          : 2
Format                      : AC-3
Format/Info                 : Audio Coding 3
Commercial name             : Dolby Digital
Codec ID                    : A_AC3
Duration                    : 2 h 9 min
Bit rate mode               : Constant
Bit rate                    : 192 kb/s
Channel(s)                  : 2 channels
Channel layout              : L R
Sampling rate               : 48.0 kHz
Frame rate                  : 31.250 FPS (1536 SPF)
Bit depth                   : 16 bits
Compression mode            : Lossy
Stream size                 : 178 MiB (2%)
Title                       : MVO [Volia CINE+] 2.0 [stereo] 192 Kbps [Hurtom-Sando7]
Language                    : Ukrainian
Service kind                : Complete Main
Default                     : Yes
Forced                      : No

Audio #2
ID                          : 3
Format                      : AC-3
Format/Info                 : Audio Coding 3
Commercial name             : Dolby Digital
Codec ID                    : A_AC3
Duration                    : 2 h 9 min
Bit rate mode               : Constant
Bit rate                    : 192 kb/s
Channel(s)                  : 2 channels
Channel layout              : L R
Sampling rate               : 48.0 kHz
Frame rate                  : 31.250 FPS (1536 SPF)
Bit depth                   : 16 bits
Compression mode            : Lossy
Stream size                 : 178 MiB (2%)
Title                       : MVO [ICTV] 2.0 192 Kbps [Hurtom-Electroz, krigg070]
Language                    : Ukrainian
Service kind                : Complete Main
Default                     : No
Forced                      : No

Audio #3
ID                          : 4
Format                      : AC-3
Format/Info                 : Audio Coding 3
Commercial name             : Dolby Digital
Codec ID                    : A_AC3
Duration                    : 2 h 9 min
Bit rate mode               : Constant
Bit rate                    : 640 kb/s
Channel(s)                  : 6 channels
Channel layout              : L R C LFE Ls Rs
Sampling rate               : 48.0 kHz
Frame rate                  : 31.250 FPS (1536 SPF)
Bit depth                   : 16 bits
Compression mode            : Lossy
Stream size                 : 595 MiB (7%)
Title                       : Original, 5.1 640 Kbps
Language                    : English
Service kind                : Complete Main
Default                     : No
Forced                      : No

Text #1
ID                          : 5
Format                      : UTF-8
Codec ID                    : S_TEXT/UTF8
Codec ID/Info               : UTF-8 Plain Text
Duration                    : 1 min 7 s
Bit rate                    : 168 b/s
Count of elements           : 17
Stream size                 : 1.39 KiB (0%)
Title                       : Ukr forced
Language                    : Ukrainian
Default                     : Yes
Forced                      : Yes

Text #2
ID                          : 6
Format                      : UTF-8
Codec ID                    : S_TEXT/UTF8
Codec ID/Info               : UTF-8 Plain Text
Duration                    : 1 h 59 min
Bit rate                    : 54 b/s
Count of elements           : 1479
Stream size                 : 47.5 KiB (0%)
Title                       : Eng full
Language                    : English
Default                     : No
Forced                      : No

Text #3
ID                          : 7
Format                      : UTF-8
Codec ID                    : S_TEXT/UTF8
Codec ID/Info               : UTF-8 Plain Text
Duration                    : 1 h 59 min
Bit rate                    : 60 b/s
Count of elements           : 1561
Stream size                 : 52.9 KiB (0%)
Title                       : Eng SDH
Language                    : English
Default                     : No
Forced                      : No

Menu
00:00:00.000                : :Chapter 01
00:10:14.614                : :Chapter 02
00:19:45.184                : :Chapter 03
00:29:56.795                : :Chapter 04
00:42:51.569                : :Chapter 05
00:53:08.185                : :Chapter 06
01:07:20.703                : :Chapter 07
01:19:03.697                : :Chapter 08
01:32:38.219                : :Chapter 09
01:43:05.137                : :Chapter 10
01:58:02.075                : :Chapter 11


Код:
[info]: frame I:1214 Avg QP:13.42 size:111374
[info]: frame P:40515 Avg QP:15.72 size: 59324
[info]: frame B:145184 Avg QP:16.57 size: 33334
[info]: consecutive B-frames: 2.0% 2.2% 7.4% 25.7% 14.3% 34.4% 6.5% 1.1% 1.5% 1.6% 3.3%
Оригінал <----------> Ріп







Джерело: &
Подяка Sando7, Electroz'у та krigg070 за українські доріжки. Форсовані українські субтитри - igor911

28.05.2019 реліз оновлено - додано українську доріжку з Cine+


 Трекер:    Зареєстрований   

Завантажити / скачати фільм українською



відео для новачків



 Зареєстрований:   2019-05-28 10:30
 Розмір:   7.8 GB 
 Оцінка фільму:   5.1/10 (Голосів: 28)
 ЗАЛИШАЙТЕСЬ ЯКОМОГА ДОВШЕ НА РОЗДАЧІ! ЗАВАНТАЖИВ САМ - ДАЙ ЗАВАНТАЖИТИ ІНШИМ!
   
Інші релізи
waldi-hurtom 
VIP


З нами з: 07.10.12
Востаннє: 13.08.20
Повідомлень: 1161

2017-05-12 12:58  
Цей фільм побив усі полуничні рекорди американських фільмів про другу світову. Повний кабздець. Пасквіль проти військово-морського флоту. Типу тупі та ще тупіші. 1 з 10. Дивитися неможливо.
0mage0 
VIP


З нами з: 06.10.15
Востаннє: 14.08.20
Повідомлень: 690

2017-05-16 20:41  
waldi-hurtom написано:
Цей фільм побив усі полуничні рекорди американських фільмів про другу світову. Повний кабздець. Пасквіль проти військово-морського флоту. Типу тупі та ще тупіші. 1 з 10. Дивитися неможливо.

А які, власне, претензії до фільму? Основа сюжету - реальні події. Ну і який фільм про війну без
хлопця, що хоче одружитися і вже купив кільце, але загинув і без його друга, що теж кохає його обраницю?
Happy Може це вас обурило?

Wensun 
Поважний учасник


З нами з: 20.01.09
Востаннє: 11.08.20
Повідомлень: 173

2017-05-17 09:49  
фільм жах, сюжет тупий, ефекти як в компютерній грі, я не знаю що сталось з кейджом і як він докотився до таких фільмів. 2/10
ua2014 
Частий відвідувач


З нами з: 29.04.14
Востаннє: 10.08.20
Повідомлень: 27

2017-08-13 20:28  
Мені фільм сподобався. Дивився раніше, зараз з'явилось бажання ще раз переглянути. Рекомендую до перегляду.

Тут не потрібні круті спецефекти, це більше драма, а не якісь там трансформери.
І Кейдж на мою думку зіграв чудово.

Anonymous 







2019-05-28 10:31  
Реліз оновлено - додано українську доріжку з Cine+
Ваш часовий пояс: GMT + 2 Години

Нова тема   Відповісти