Придорожній клуб (Придорожній заклад) / Road House (1989) 1080p 2xUkr/Eng | Sub Eng

Нові коментарі

Нова тема   Відповісти
Останній раз роздавалося toloka_alex_2013 (2020-08-18)
Автор Повідомлення
Anonymous 







2017-05-10 23:14  
Придорожній клуб / Придорожній заклад / Road House (1989) 1080p 2xUkr/Eng | Sub Eng

Придорожній клуб (Придорожній заклад) / Road House (1989) 1080p 2xUkr/Eng | Sub Eng

Альтернативний постер


Жанр: бойовик, трилер
Країна: США



Кінокомпанія: Silver Pictures, Star Partners II Ltd.
Режисер: Роуді Геррінґтон / Rowdy Herrington
Актори: Патрік Свейзі / Patrick Swayze, Келлі Лінч / Kelly Lynch, Сем Елліотт / Sam Elliott, Бен Ґаззара / Ben Gazzara, Маршалл Р. Тіґ / Marshall R. Teague та інші

Сюжет:
Долтон, легендарний викидайло, прибуває в Джаспер у штаті Міссурі з певною метою: відновити порядок в небезпечному барі "Біса з два". По мірі того, як він позбавляє бар від головорізів, хуліганів і найманих убивць, міцнішає гнів їхнього роботодавця - сумнозвісного рекетира Бреда Веслі. Місто живе в страху перед Веслі, проте Далтон готовий діяти...


Тривалість: 01:54:09
Якість: 1080p
Відео:
кодек:
розмір кадру: 1916 х 820
бітрейт: 13.9 Мб/с

Аудіо # 1:
мова: українська
переклад: багатоголосий закадровий
кодек: 2.0
бітрейт: 192 кб/с

Аудіо # 2:
мова: українська
переклад: двоголосий закадровий
кодек: 2.0
бітрейт: 192 кб/с
Інформація про озвучення

Запис звуку з трансляції телеканалу "КІНО" - це стара назва каналу ''2+2''
Аудіо # 3:
мова: англійська
переклад: оригінал
кодек: 5.1
бітрейт: 640 кб/с

Джерело озвучення:
/

Субтитри:
мова: англійська
тип: програмні (м'які)
формат: *.srt

Субтитри:
мова: англійська (SDH)
тип: програмні (м'які)
формат: *.srt
Info
General
Unique ID : 208167425362428010857086930622462579453 (0x9C9B9679BE2FDEFDB69FCDEA540052FD)
Format :
Format version : Version 4 / Version 2
File size : 12.1 GiB
Duration : 1 h 54 min
Overall bit rate : 15.2 Mb/s
Movie name : Road House (1989) 1080p [2xUkr.Eng Sub.Eng] [Hurtom]
Encoded date : UTC 2017-05-10 19:17:42
Writing application : v6.1.0 ('Old Devil') built on Mar 2 2013 14:32:37
Writing library : libebml v1.3.0 + v1.4.0
Cover : Yes
Attachments : Cover.jpg / Cover2.jpg

Video
ID : 1
Format : AVC
Format/Info : Advanced Video Codec
Format profile : [email protected]
Format settings, CABAC : Yes
Format settings, ReFrames : 5 frames
Codec ID : V_MPEG4/ISO/AVC
Duration : 1 h 54 min
Bit rate : 13.9 Mb/s
Width : 1 916 pixels
Height : 820 pixels
Display aspect ratio : 2.35:1
Frame rate mode : Constant
Frame rate : 23.976 (24000/1001) FPS
Color space : YUV
Chroma subsampling : 4:2:0
Bit depth : 8 bits
Scan type : Progressive
Bits/(Pixel*Frame) : 0.369
Stream size : 11.1 GiB (91%)
Title : Road House (1989) 1080p [2xUkr.Eng Sub.Eng] [Hurtom]
Writing library : core 148 r2692kMod 64f4e24
Encoding settings : cabac=1 / ref=5 / deblock=1:-3:-3 / analyse=0x3:0x133 / me=umh / subme=10 / psy=1 / fade_compensate=0.00 / psy_rd=0.90:0.00 / mixed_ref=1 / me_range=32 / chroma_me=1 / trellis=2 / 8x8dct=1 / cqm=0 / deadzone=21,11 / fast_pskip=0 / chroma_qp_offset=-2 / threads=6 / lookahead_threads=1 / sliced_threads=0 / nr=0 / decimate=0 / interlaced=0 / bluray_compat=0 / constrained_intra=0 / fgo=0 / bframes=8 / b_pyramid=2 / b_adapt=2 / b_bias=0 / direct=3 / weightb=1 / open_gop=0 / weightp=2 / keyint=250 / keyint_min=23 / scenecut=40 / intra_refresh=0 / rc=crf / mbtree=0 / crf=18.0000 / qcomp=0.60 / qpmin=0 / qpmax=69 / qpstep=4 / ip_ratio=1.40 / pb_ratio=1.30 / aq=3:0.80
Language : English
Default : Yes
Forced : No

Audio #1
ID : 2
Format : AC-3
Format/Info : Audio Coding 3
Format settings, Endianness : Big
Codec ID : A_AC3
Duration : 1 h 54 min
Bit rate mode : Constant
Bit rate : 192 kb/s
Channel(s) : 2 channels
Channel positions : Front: L R
Sampling rate : 48.0 kHz
Frame rate : 31.250 FPS (1536 spf)
Bit depth : 16 bits
Compression mode : Lossy
Stream size : 157 MiB (1%)
Title : MVO | ICTV | 2.0 | 192 kb/s
Language : Ukrainian
Service kind : Complete Main
Default : Yes
Forced : No

Audio #2
ID : 3
Format : AC-3
Format/Info : Audio Coding 3
Format settings, Endianness : Big
Codec ID : A_AC3
Duration : 1 h 54 min
Bit rate mode : Constant
Bit rate : 192 kb/s
Channel(s) : 2 channels
Channel positions : Front: L R
Sampling rate : 48.0 kHz
Frame rate : 31.250 FPS (1536 spf)
Bit depth : 16 bits
Compression mode : Lossy
Stream size : 157 MiB (1%)
Title : DVO | 2+2 (KINO) | 2.0 | 192 kb/s
Language : Ukrainian
Service kind : Complete Main
Default : No
Forced : No

Audio #3
ID : 4
Format : AC-3
Format/Info : Audio Coding 3
Format settings, Endianness : Big
Codec ID : A_AC3
Duration : 1 h 54 min
Bit rate mode : Constant
Bit rate : 640 kb/s
Channel(s) : 6 channels
Channel positions : Front: L C R, Side: L R, LFE
Sampling rate : 48.0 kHz
Frame rate : 31.250 FPS (1536 spf)
Bit depth : 16 bits
Compression mode : Lossy
Stream size : 523 MiB (4%)
Title : Original
Language : English
Service kind : Complete Main
Default : No
Forced : No

Text #1
ID : 5
Format : UTF-8
Codec ID : S_TEXT/UTF8
Codec ID/Info : UTF-8 Plain Text
Title : Original
Language : English
Default : No
Forced : No

Text #2
ID : 6
Format : UTF-8
Codec ID : S_TEXT/UTF8
Codec ID/Info : UTF-8 Plain Text
Title : Original | SDH
Language : English
Default : No
Forced : No

Menu
00:00:00.000 : en:00:00:00.000
00:04:10.792 : en:00:04:10.792
00:06:23.383 : en:00:06:23.383
00:09:46.669 : en:00:09:46.669
00:12:36.506 : en:00:12:36.506
00:16:25.067 : en:00:16:25.067
00:21:58.734 : en:00:21:58.734
00:25:43.167 : en:00:25:43.167
00:29:46.702 : en:00:29:46.702
00:32:23.066 : en:00:32:23.066
00:36:41.825 : en:00:36:41.825
00:39:13.726 : en:00:39:13.726
00:42:06.566 : en:00:42:06.566
00:46:01.926 : en:00:46:01.926
00:47:46.739 : en:00:47:46.739
00:51:03.018 : en:00:51:03.018
00:53:56.108 : en:00:53:56.108
00:57:45.337 : en:00:57:45.337
00:59:42.120 : en:00:59:42.120
01:06:28.067 : en:01:06:28.067
01:10:56.586 : en:01:10:56.586
01:15:47.293 : en:01:15:47.293
01:23:44.937 : en:01:23:44.937
01:29:25.986 : en:01:29:25.986
01:35:48.910 : en:01:35:48.910
01:40:42.703 : en:01:40:42.703
01:44:04.280 : en:01:44:04.280
01:49:24.725 : en:01:49:24.725
Скріншоти














Джерело: &
За опис дякую панові: rooster та omm
Подяка пану Sando7 за запис звуку до аудіо №1;
Подяка пану dvorsky за запис звуку та пану rooster за зведення аудіо №2;
Подяка пану Тирік'у, за українізацію постерів!
Кому дякувати за зведення доріжки №1? - звичайно ж omm
Особиста оцінка: 10 - без зайвих вагань рекомендую всім!


R - рейтинг стрічки, встановлений Американською асоціацією кінокомпаній

MPAA, англ. Motion Picture Association of America - Американська асоціація кінокомпаній

Рейтинг R — Restricted
Підлітки до 18 років допускаються на фільм тільки у супроводі одного з батьків, або їхнього законного представника.

Обмеження — до 18 років потрібний супровід одного з батьків або дорослого опікуна (вік може змінюватися в деяких регіонах). Даний рейтинг показує, що оціночна комісія вирішила, що деякий матеріал цього фільму призначається для дорослих. Батьки повинні більше дізнатися про фільм перш, ніж узяти на його перегляд дітей. Рейтинг R також може бути призначений через використовувану у фільмі мову, теми насильства, сексу або зображення вживання наркотиків.


Не забуваємо дякувати!


Срібний реліз (на рейтинг впливає 50% завантаженого)
 Трекер:    Зареєстрований   

Завантажити / скачати фільм українською



відео для новачків



 Зареєстрований:   2017-05-10 23:22
 Розмір:   12.15 GB 
 Оцінка фільму:   9.1/10 (Голосів: 8)
   
mutomba 
VIP


З нами з: 20.10.13
Востаннє: 27.09.20
Повідомлень: 362

2017-05-12 12:18  
Келлі Лінч - красуня )
Гарне олдскульне кіно...

Siegfried 
VIP


З нами з: 01.11.11
Востаннє: 20.09.20
Повідомлень: 325

2017-05-12 13:31  
На раз.

Для свого часу був непоганим.

Зараз його можна переглядати лише з іронічною усмішкою, або для розуміння серій Family Guy, де Пітер Гріффін все вирішує бійками, примовляючи "придорожня закусочна". )))

5/10

Ваш часовий пояс: GMT + 2 Години

Нова тема   Відповісти