Євробачення 2016. Фінал / Eurovision 2016: Final (2016) 1080p Ukr/Eng

Нові коментарі

Нова тема   Відповісти
Останній раз роздавалося sergiyko.5 (2017-06-05)
Автор Повідомлення
sergiyko.5 
VIP


З нами з: 25.02.16
Востаннє: 17.08.17
Повідомлень: 986

2017-05-10 20:40  
Євробачення 2016. Фінал / Eurovision 2016: Final (2016) 1080p Ukr/Eng

Євробачення 2016. Фінал / Eurovision 2016: Final (2016) 1080p Ukr/Eng

Жанр: Пісенний конкурс
Країна: Швеція
Телеканал: Feed
Мова коментарів: українська (Тетяна Терехова та Тімур Мірошниченко)

Опис:
Пісенний конкурс «Євробачення» 2016 — 61-й пісенний конкурс Євробачення, який відбувся у шведській столиці Стокгольмі з огляду на перемогу Монса Сельмерлева із піснею «Heroes» у попередньому пісенному конкурсі, який провели у Відні, Австрія.
Швеція вшосте приймала конкурс, а місто Стокгольм — утретє. Конкурс містив два півфінали (10 і 12 травня) та фінал (14 травня). Ведучими всіх трьох шоу були Монс Сельмерлев та Петра Меде (яка також була ведучою Євробачення 2013 в Мальме).
42 країни підтвердили, що візьмуть участь у заході. Болгарія, Боснія і Герцеговина, Україна і Хорватія заявили про своє повернення на конкурс, водночас Португалія вирішила відмовитись від нього, а Румунію дискваліфікували за борги румунського телеканалу TVR (Televiziunea Română) перед Європейською мовною спілкою.
Захід організовував шведський телеканал Sveriges Television.


Треклист:
1. Laura Tesoro - What's the Pressure? (Бельгія)
2. Gabriela Guncikova - I Stand (Чехія)
3. Douwe Bob - Slow Down (Нідерланди)
4. Samra Rahimli - Miracle (Азербайджан)
5. Freddie - Pioneer (Угорщина)
6. Francesca Michielin - No Degree of Separation (Італія)
7. Hovi Star - Made of Stars (Ізраїль)
8. Полі Генова - If Love Was a Crime (Болгарія)
9. Frans - If I were Sorry (Швеція)
10. Jamie-Lee Kriewitz - Ghost (Німеччина)
11. Amir Haddad - J'ai cherche (Франція)
12. Міхал Шпак - Color of Your Life (Польща)
13. Dami Im - Sound of Silence (Австралія)
14. Minus One - Alter Ego (Кіпр)
15. ZAA - Goodbye (Сербія)
16. Donny Montell - I've Been Waiting for This Night (Литва)
17. Ніна Краліч - Lighthouse (Хорватія)
18. Сергій Лазарєв - You Are The Only One (Росія)
19. Barei - Say Yay! (Іспанія)
20. Justs - Heartbeat (Латвія)
21. Джамала - 1944 (Україна)
22. Ira Losco - Walk on Water (Мальта)
23. Nika Kocharov & Young Georgian Lolitaz - Midnight Gold (Грузія)
24. Zoe - Loin d'ici (Австрія)
25. Joe & Jake - You're Not Alone (Великобританія)
26. Івета Мукучян - LoveWave (Вірменія)

Тривалість: 03:49:35
Якість:

Відео: кодек: розмір кадру: 1920 х 1080 бітрейт: 10000 кб/с
Аудіо # 1: мова: українська переклад: двоголосий закадровий кодек: 5.1 бітрейт: 1509 кб/с
Аудіо # 2: мова: англійська переклад: оригінал кодек: -HD 5.1 бітрейт: 6912 кб/с
Аудіо # 3: мова: англійська переклад: оригінал кодек: 5.1 бітрейт: 448 кб/с
Про файл:

General
Unique ID : 226576578374240717708166377357478062522 (0xAA750FCB7DAD852DA5EFF8A511D5E9BA)
Complete name : D:\Torrents\MUSIC\Eurovision 2016.Final.1080p..by.sergiyko.
Format :
Format version : Version 4 / Version 2
File size : 22.1 GiB
Duration : 3h 49mn
Overall bit rate : 13.8 Mbps
Movie name : Eurovision 2016 Final 1080p by sergiyko
Encoded date : UTC 2016-05-19 20:15:59
Writing application : mkvmerge v9.0.1 ('Obstacles') 64bit
Writing library : libebml v1.3.3 + libmatroska v1.4.4
Attachements : cover.jpeg
DURATION : 03:49:35.019000000
NUMBER_OF_FRAMES : 1291408
NUMBER_OF_BYTES : 2598312896
_STATISTICS_WRITING_APP : mkvmerge v9.0.1 ('Obstacles') 64bit
_STATISTICS_WRITING_DATE_UTC : 2016-05-19 20:15:59
_STATISTICS_TAGS : BPS DURATION NUMBER_OF_FRAMES NUMBER_OF_BYTES

Video
ID : 1
Format : AVC
Format/Info : Advanced Video Codec
Format profile : [email protected]
Format settings, CABAC : Yes
Format settings, ReFrames : 4 frames
Codec ID : V_MPEG4/ISO/AVC
Duration : 3h 49mn
Bit rate : 10.0 Mbps
Width : 1 920 pixels
Height : 1 080 pixels
Display aspect ratio : 16:9
Frame rate mode : Constant
Frame rate : 25.000 fps
Color space : YUV
Chroma subsampling : 4:2:0
Bit depth : 8 bits
Scan type : Progressive
Bits/(Pixel*Frame) : 0.193
Stream size : 16.1 GiB (73%)
Title : Eurovision 2016 Final 1080p by sergiyko
Writing library : core 148 r2638 7599210
Encoding settings : cabac=1 / ref=4 / deblock=1:-1:-1 / analyse=0x3:0x133 / me=umh / subme=9 / psy=1 / psy_rd=1.00:0.15 / mixed_ref=1 / me_range=16 / chroma_me=1 / trellis=2 / 8x8dct=1 / cqm=0 / deadzone=21,11 / fast_pskip=1 / chroma_qp_offset=-3 / threads=6 / lookahead_threads=1 / sliced_threads=0 / nr=0 / decimate=1 / interlaced=0 / bluray_compat=0 / constrained_intra=0 / bframes=3 / b_pyramid=2 / b_adapt=2 / b_bias=0 / direct=1 / weightb=1 / open_gop=0 / weightp=2 / keyint=250 / keyint_min=25 / scenecut=40 / intra_refresh=0 / rc_lookahead=50 / rc=crf / mbtree=1 / crf=21.0 / qcomp=0.60 / qpmin=0 / qpmax=69 / qpstep=4 / vbv_maxrate=25000 / vbv_bufsize=25000 / crf_max=0.0 / nal_hrd=none / filler=0 / ip_ratio=1.40 / aq=1:1.00
Language : English
Default : Yes
Forced : No
DURATION : 03:49:34.920000000
NUMBER_OF_FRAMES : 344373
NUMBER_OF_BYTES : 17716139425
_STATISTICS_WRITING_APP : mkvmerge v9.0.1 ('Obstacles') 64bit
_STATISTICS_WRITING_DATE_UTC : 2016-05-19 20:15:59
_STATISTICS_TAGS : BPS DURATION NUMBER_OF_FRAMES NUMBER_OF_BYTES

Audio #1
ID : 2
Format :
Format/Info : Digital Theater Systems
Mode : 16
Format settings, Endianness : Big
Codec ID : A_DTS
Duration : 3h 49mn
Bit rate mode : Constant
Bit rate : 1 510 Kbps
Channel(s) : 6 channels
Channel positions : Front: L C R, Side: L R, LFE
Sampling rate : 48.0 KHz
Bit depth : 24 bits
Compression mode : Lossy
Stream size : 2.42 GiB (11%)
Language : Ukrainian
Default : Yes
Forced : Yes

Audio #2
ID : 3
Format :
Format/Info : Digital Theater Systems
Mode : 16
Format settings, Endianness : Big
Codec ID : A_DTS
Duration : 3h 49mn
Bit rate mode : Constant
Bit rate : 1 509 Kbps
Channel(s) : 6 channels
Channel positions : Front: L C R, Side: L R, LFE
Sampling rate : 48.0 KHz
Bit depth : 24 bits
Compression mode : Lossy
Stream size : 2.42 GiB (11%)
Language : English
Default : No
Forced : No

Audio #3
ID : 4
Format : AC-3
Format/Info : Audio Coding 3
Mode extension : CM (complete main)
Format settings, Endianness : Big
Codec ID : A_AC3
Duration : 3h 49mn
Bit rate mode : Constant
Bit rate : 448 Kbps
Channel(s) : 6 channels
Channel positions : Front: L C R, Side: L R, LFE
Sampling rate : 48.0 KHz
Compression mode : Lossy
Stream size : 736 MiB (3%)
Language : English
Default : No
Forced : No

Menu
00:02:58.268 : :Розділ 01
00:10:03.152 : :Розділ 02
00:15:41.850 : :01 - Бельгія - Лаура Тесоро - «What’s the Pressure?»
00:19:42.553 : :02 - Чехія - Габріела Гунчікова - «I Stand»
00:23:37.401 : :03 - Нідерланди - Дауе Боб - «Slow Down»
00:27:30.900 : :04 - Азербайджан - Семра - «Miracle»
00:31:30.693 : :05 - Угорщина - Фредди - «Pioneer»
00:35:27.914 : :06 - Італія - Франческа Мікьєлін - «No Degree of Separation»
00:39:30.463 : :07 - Ізраіль - Хові Стар - «Made of Stars»
00:43:29.427 : :08 - Болгарія - Полі Генова - «If Love Was a Crime»
00:47:27.315 : :09 - Швеція - Франс - «If I were Sorry»
00:52:18.269 : :10 - Німеччина - Джеймі-Лі - «Ghost»
00:56:13.803 : :11 - Франція - Амір Хаддад - «J’ai cherché»
01:00:12.759 : :12 - Польша - Михал Шпак - «Color of Your Life»
01:06:42.687 : :13 - Австралія - Демі Ім - «Sound of Silence»
01:10:49.943 : :14 - Республіка Кіпр - Minus One - «Alter Ego»
01:14:48.778 : :15 - Сербія - Саня Вучич - «Goodbye»
01:18:55.200 : :16 - Литва - Донні Монтелл - «I’ve Been Waiting for This Night»
01:22:51.175 : :17 - Хорватія - Ніна Краліч - «Lighthouse»
01:26:50.146 : :18 - Росія - Сергій Лазарєв - «You Are the Only One»
01:30:50.670 : :19 - Іспанія - Barei - «Say Yay!»
01:35:45.727 : :20 - Латвія - Юстс - «Heartbeat»
01:39:39.391 : :21 - Україна - Джамала - «1944»
01:43:43.682 : :22 - Мальта - Ира Лоско - «Walk on Water»
01:47:45.325 : :23 - Грузія - Nika Kocharov & Young Georgian Lolitaz - «Midnight Gold»25
01:51:44.489 : :24 - Австрія - Зої - «Loin d’ici»
01:55:45.922 : :25 - Великобританія - Joe & Jake - «You’re Not Alone»
01:59:35.002 : :26 - Вірменія - Івета Мукучян - «LoveWave»
02:14:17.000 : :Розділ 29
02:21:41.000 : :Розділ 30
02:43:45.829 : :Розділ 31
02:52:16.000 : :Розділ 32
03:11:13.753 : :Розділ 33
03:30:21.145 : :Розділ 34
03:40:47.290 : :Розділ 35
03:45:02.143 : :Розділ 36

Скріншоти:



Автор ріпу:
sergiyko


Золотий реліз (завантажене не впливає на рейтинг)
 Трекер:    Зареєстрований   

Завантажити / скачати передачу українською



відео для новачків



 Зареєстрований:   2017-05-10 20:40
 Розмір:   22.06 GB 
 Оцінка передачі:   7/10 (Голосів: 6)
   
Ваш часовий пояс: GMT + 2 Години

Нова тема   Відповісти