Нічого втрачати / Nothing to Lose (1997) HDTV 1080i 2xUkr/Eng | Sub Eng

Нові коментарі

Нова тема   Відповісти
Автор Повідомлення
Anonymous 







2017-05-10 00:31  
Нічого втрачати / Nothing to Lose (1997) HDTV 1080i 2xUkr/Eng | Sub Eng

Нічого втрачати / Nothing to Lose (1997) HDTV 1080i 2xUkr/Eng | Sub Eng


Жанр: пригодницький, комедія
Країна: США



Кінокомпанія: Touchstone Pictures
Режисер: Стів Удекерк
Актори: Мартін Лоуренс (Martin Lawrence), Тім Робінс (Tim Robbins), Джон Маꥳнлі, Джанкарло Еспозіто, Майкл Кін, Келлі Престон

Сюжет:
Фільм розповідає про Ніка Біма, рекламного виконавця, який думає, що має прекрасне життя... до його повернення додому і застає свою дружину, яка займається сексом з його босом. Відчувши, що опинився на межі нервового зриву, він їздить містом доки в його машину не влазить автограбіжник Ті-Пол, вимагаючи гаманеці і ключі від машини. Та Нік в свою чергу, не зважаючи на грабіжника, рушає далі, викрадаючи нападника... Невдовзі вони розуміють що варті один одного...


Тривалість: 01:33:59
Якість: HDTV 1080i
Відео:
кодек:
розмір кадру: 1920 х 1080
бітрейт: 10.4 Мб/с

Аудіо # 1:
мова: українська
переклад: двоголосий закадровий
кодек: 5.0
бітрейт: 384 кб/с
Інформація про озвучення

Текст читали актори: Остап Ступка, Ольга Радчук
Інформація із цього релізу (Віктор): https://toloka.to/t1687#418765

Запис звуку з трансляції телеканалу "1+1"
Аудіо # 2:
мова: українська
переклад: двоголосий закадровий
кодек: 5.0
бітрейт: 384 кб/с
примітка: на перші три хвилини вставка з 1+1

Аудіо # 3:
мова: англійська
переклад: оригінал
кодек: 5.0
бітрейт: 384 кб/с

Джерело озвучення:
/

Субтитри:
мова: англійська
тип: пререндерні
формат: *.pgs
Info
General
Unique ID : 252343086696875100442193791868048237087 (0xBDD782BCC472EA21BAF060CAE387E21F)
Format :
Format version : Version 4 / Version 2
File size : 7.40 GiB
Duration : 1 h 33 min
Overall bit rate mode : Variable
Overall bit rate : 11.3 Mb/s
Movie name : Nothing to Lose (1997) HDTV 1080i [2xUkr.Eng Sub.Eng] [Hurtom]
Encoded date : UTC 2017-05-09 21:38:39
Writing application : mkvmerge v6.1.0 ('Old Devil') built on Mar 2 2013 14:32:37
Writing library : libebml v1.3.0 + libmatroska v1.4.0
Cover : Yes
Attachments : Cover.jpg

Video
ID : 1
Format : AVC
Format/Info : Advanced Video Codec
Format profile : [email protected]
Format settings, CABAC : Yes
Format settings, ReFrames : 4 frames
Format settings, GOP : M=4, N=13
Codec ID : V_MPEG4/ISO/AVC
Duration : 1 h 33 min
Bit rate mode : Variable
Bit rate : 9 902 kb/s
Maximum bit rate : 40.0 Mb/s
Width : 1 920 pixels
Height : 1 080 pixels
Display aspect ratio : 16:9
Frame rate mode : Constant
Frame rate : 25.000 FPS
Color space : YUV
Chroma subsampling : 4:2:0
Bit depth : 8 bits
Scan type : Interlaced
Scan type, store method : Separated fields
Scan order : Top Field First
Bits/(Pixel*Frame) : 0.191
Stream size : 6.50 GiB (88%)
Title : Nothing to Lose (1997) HDTV 1080i [2xUkr.Eng Sub.Eng] [Hurtom]
Language : English
Default : Yes
Forced : No
Color range : Limited
Color primaries : BT.709
Transfer characteristics : BT.709
Matrix coefficients : BT.709

Audio #1
ID : 2
Format : AC-3
Format/Info : Audio Coding 3
Format settings, Endianness : Big
Codec ID : A_AC3
Duration : 1 h 33 min
Bit rate mode : Constant
Bit rate : 384 kb/s
Channel(s) : 5 channels
Channel positions : Front: L C R, Side: L R
Sampling rate : 48.0 kHz
Frame rate : 31.250 FPS (1536 spf)
Bit depth : 16 bits
Compression mode : Lossy
Stream size : 258 MiB (3%)
Title : DVO | 1+1 | 5.0 | 384 kb/s
Language : Ukrainian
Service kind : Complete Main
Default : Yes
Forced : No

Audio #2
ID : 3
Format : AC-3
Format/Info : Audio Coding 3
Format settings, Endianness : Big
Codec ID : A_AC3
Duration : 1 h 33 min
Bit rate mode : Constant
Bit rate : 384 kb/s
Channel(s) : 5 channels
Channel positions : Front: L C R, Side: L R
Sampling rate : 48.0 kHz
Frame rate : 31.250 FPS (1536 spf)
Bit depth : 16 bits
Compression mode : Lossy
Stream size : 258 MiB (3%)
Title : DVO | ICTV | 5.0 | 384 kb/s
Language : Ukrainian
Service kind : Complete Main
Default : No
Forced : No

Audio #3
ID : 4
Format : AC-3
Format/Info : Audio Coding 3
Format settings, Endianness : Big
Codec ID : A_AC3
Duration : 1 h 33 min
Bit rate mode : Constant
Bit rate : 384 kb/s
Channel(s) : 5 channels
Channel positions : Front: L C R, Side: L R
Sampling rate : 48.0 kHz
Frame rate : 31.250 FPS (1536 spf)
Bit depth : 16 bits
Compression mode : Lossy
Delay relative to video : 159 ms
Stream size : 258 MiB (3%)
Title : Original
Language : English
Service kind : Complete Main
Default : No
Forced : No

Text
ID : 5
Format : PGS
Muxing mode : zlib
Codec ID : S_HDMV/PGS
Codec ID/Info : Picture based subtitle format used on BDs/HD-DVDs
Title : Original
Language : English
Default : No
Forced : No
Скріншоти

















Джерело:
Подяки:
За опис дякую панові ProgBassing, akon111 та Zeus62.
За сихронізацію звукових доріжок дякую панові Lan.
За постер подяка Musketeer та Shkval.
Особиста оцінка: 10 - без зайвих вагань рекомендую всім!


Срібний реліз (на рейтинг впливає 50% завантаженого)
 Трекер:    Зареєстрований   

Завантажити / скачати фільм українською



відео для новачків



 Зареєстрований:   2017-05-10 00:37
 Розмір:   7.4 GB 
 Оцінка фільму:   9.3/10 (Голосів: 11)
   
Інші релізи
igor911 
Відео Гуртом
Відео Гуртом


З нами з: 18.01.08
Востаннє: 16.12.17
Повідомлень: 8510

2017-05-10 07:35  
Pegass написано:
За постер подяка Musketeer та Shkval

Зорян та Шкіряк схвалюють Happy

Додано через 11 хвилин 1 секунду:

Pegass написано:
тип: програмні (м'які)
формат: *.pgs

PGS - то пререндерні субтитри

taksist 
Поважний учасник


З нами з: 10.12.12
Востаннє: 16.12.17
Повідомлень: 171

2017-05-12 01:28  
гарний фільм.хоч з часом вже не сприймається динамічно але ж гарні фільми то завжди гарні фільми.
Ваш часовий пояс: GMT + 2 Години

Нова тема   Відповісти