Знаменитість / Celebrity (1998) 1080p Ukr/Eng | Sub Eng

Нові коментарі

Нова тема   Відповісти
Автор Повідомлення
Anonymous 







2017-05-09 23:00  
Знаменитість / Celebrity (1998) 1080p Ukr/Eng | Sub Eng

Знаменитість / Celebrity (1998) 1080p Ukr/Eng | Sub Eng


Жанр: комедія, драма
Країна: США



Кінокомпанія: Sweetland Films, Magnolia Productions
Режисер: Вуді Аллен (Woody Allen)
Актори: Кенет Брана, Мелані Гріфіт, Вайнона Райдер, Фамке Янсен, Хенк Азаріа, Леонардо ДіКапріо (Leonardo DiCaprio), Шарліз Терон (Charlize Theron), Дональд Трамп

Сюжет:
Світ знаменитостей привабливий та недосяжний. Зірки, що населяють його, всесвітньо відомі і нескінченно багаті. Їх життя наповнене цікавими подіями, призами та задоволеннями, і лише невеликі неприємності можуть ненадовго затьмарити їх безбідне існування. Але зблизька життя зірок не здається таким вже гарним та чудовим.

Рейтинг MPAA: - R



Тривалість: 01:53:26
Якість: 1080p
Відео:
кодек:
розмір кадру: 1920 х 1040
бітрейт: 15.3 Мб/с

Аудіо # 1:
мова: українська
переклад: двоголосий закадровий
кодек: 2.0
бітрейт: 192 кб/с
Інформація про озвучення

Звук записано з телеканалу Enter-Фільм
Переклад виконано та озвучено студією Так Треба Продакшн
Аудіо # 2: DVD
мова: англійська
переклад: оригінал
кодек: 5.1
бітрейт: 448 кб/с

Аудіо # 3: Blu-Ray
мова: англійська
переклад: оригінал
кодек: 2.0
бітрейт: 192 кб/с

Джерело озвучення:


Субтитри:
мова: англійська
тип: програмні (м'які)
формат: *.srt
Info
General
Unique ID : 174699567767546971766253528943423231795 (0x836DE9B2BBB4AC7190F36E9B951D9733)
Format :
Format version : Version 4 / Version 2
File size : 13.0 GiB
Duration : 1 h 53 min
Overall bit rate : 16.4 Mb/s
Movie name : Celebrity (1998) 1080p [Ukr.Eng Sub.Eng] [Hurtom]
Encoded date : UTC 2017-05-09 20:04:19
Writing application : mkvmerge v6.1.0 ('Old Devil') built on Mar 2 2013 14:32:37
Writing library : libebml v1.3.0 + libmatroska v1.4.0
Cover : Yes
Attachments : Cover.jpg

Video
ID : 1
Format : AVC
Format/Info : Advanced Video Codec
Format profile : [email protected]
Format settings, CABAC : Yes
Format settings, ReFrames : 4 frames
Codec ID : V_MPEG4/ISO/AVC
Duration : 1 h 53 min
Bit rate : 15.3 Mb/s
Width : 1 920 pixels
Height : 1 040 pixels
Display aspect ratio : 1.85:1
Frame rate mode : Constant
Frame rate : 24.000 FPS
Color space : YUV
Chroma subsampling : 4:2:0
Bit depth : 8 bits
Scan type : Progressive
Bits/(Pixel*Frame) : 0.318
Stream size : 12.1 GiB (93%)
Title : Celebrity (1998) 1080p [Ukr.Eng Sub.Eng] [Hurtom]
Writing library : core 148 r2705+54 9f484c1 t_mod_Custom [[email protected] X86_64]
Encoding settings : cabac=1 / ref=4 / deblock=1:-3:-2 / analyse=0x3:0x113 / me=umh / subme=11 / psy=1 / fade_compensate=0.00 / psy_rd=1.00:0.00 / mixed_ref=1 / me_range=32 / chroma_me=1 / trellis=2 / 8x8dct=1 / cqm=0 / deadzone=21,11 / fast_pskip=0 / chroma_qp_offset=-2 / threads=6 / lookahead_threads=2 / sliced_threads=0 / nr=0 / decimate=1 / interlaced=0 / bluray_compat=0 / constrained_intra=0 / fgo=0 / bframes=9 / b_pyramid=2 / b_adapt=2 / b_bias=0 / direct=3 / weightb=1 / open_gop=0 / weightp=2 / keyint=230 / keyint_min=23 / scenecut=40 / intra_refresh=0 / rc_lookahead=80 / rc=crf / mbtree=0 / crf=19.1000 / qcomp=0.70 / qpmin=0:0:0 / qpmax=69:69:69 / qpstep=4 / vbv_maxrate=50000 / vbv_bufsize=62500 / crf_max=0.0 / nal_hrd=none / filler=0 / ip_ratio=1.40 / pb_ratio=1.30 / aq=3:0.65 / aq-sensitivity=10.00 / aq-factor=1.00:1.00:1.00 / aq2=0 / aq3=0 / zones=157308,163343,crf=24
Language : English
Default : Yes
Forced : No
Color range : Limited
Color primaries : BT.709
Transfer characteristics : BT.709
Matrix coefficients : BT.709

Audio #1
ID : 2
Format : AC-3
Format/Info : Audio Coding 3
Format settings, Endianness : Big
Codec ID : A_AC3
Duration : 1 h 53 min
Bit rate mode : Constant
Bit rate : 192 kb/s
Channel(s) : 2 channels
Channel positions : Front: L R
Sampling rate : 48.0 kHz
Frame rate : 31.250 FPS (1536 spf)
Bit depth : 16 bits
Compression mode : Lossy
Stream size : 156 MiB (1%)
Title : DVO | EnterFilm (TTP) | 2.0 | 192 kb/s
Language : Ukrainian
Service kind : Complete Main
Default : Yes
Forced : No

Audio #2
ID : 3
Format : AC-3
Format/Info : Audio Coding 3
Format settings, Endianness : Big
Codec ID : A_AC3
Duration : 1 h 53 min
Bit rate mode : Constant
Bit rate : 448 kb/s
Channel(s) : 6 channels
Channel positions : Front: L C R, Side: L R, LFE
Sampling rate : 48.0 kHz
Frame rate : 31.250 FPS (1536 spf)
Bit depth : 16 bits
Compression mode : Lossy
Stream size : 363 MiB (3%)
Title : Original | DVD
Language : English
Service kind : Complete Main
Default : No
Forced : No

Audio #3
ID : 4
Format : AC-3
Format/Info : Audio Coding 3
Format settings, Endianness : Big
Codec ID : A_AC3
Duration : 1 h 53 min
Bit rate mode : Constant
Bit rate : 192 kb/s
Channel(s) : 2 channels
Channel positions : Front: L R
Sampling rate : 48.0 kHz
Frame rate : 31.250 FPS (1536 spf)
Bit depth : 16 bits
Compression mode : Lossy
Stream size : 156 MiB (1%)
Title : Original | Blu-Ray
Language : English
Service kind : Complete Main
Default : No
Forced : No

Text
ID : 5
Format : UTF-8
Codec ID : S_TEXT/UTF8
Codec ID/Info : UTF-8 Plain Text
Title : Original | Full
Language : English
Default : No
Forced : No

Menu
00:00:00.000 : :Chapter 01
00:01:35.000 : :Chapter 02
00:12:32.415 : :Chapter 03
00:22:14.250 : :Chapter 04
00:33:50.833 : :Chapter 05
00:42:18.666 : :Chapter 06
00:53:24.041 : :Chapter 07
01:03:48.125 : :Chapter 08
01:14:12.791 : :Chapter 09
01:21:28.625 : :Chapter 10
01:29:34.250 : :Chapter 11
01:36:14.625 : :Chapter 12
01:49:15.000 : :Chapter 13
01:53:25.000 : :Chapter 14
Скріншоти















Джерело:
Подяки:
Merdiff, Neo777 за запис та надання звукової доріжки
За опис та сихронізацію дякую пану NemoInFire
Особиста оцінка: 10 - без зайвих вагань рекомендую всім!


Срібний реліз (на рейтинг впливає 50% завантаженого)
 Трекер:    Зареєстрований   

Завантажити / скачати фільм українською



відео для новачків



 Зареєстрований:   2017-05-09 23:07
 Розмір:   13.01 GB 
 Оцінка фільму:   10/10 (Голосів: 2)
   
Інші релізи
   Знаменитість / Celebrity (1998) NemoInFire  4 / 0   1.67 GB   2013-07-06 17:07 
don pedro 
Попереджень: 1
Попереджень: 1 


З нами з: 29.06.11
Востаннє: 17.12.17
Повідомлень: 10874

2017-05-09 23:16  
До речі, у цьому фільмі Дональд Дж. Трамп грає сам себе.
Ваш часовий пояс: GMT + 2 Години

Нова тема   Відповісти