Діамантовий полісмен / Діамантовий поліцейський / Blue Streak (1999) 1080p 2xUkr/Eng | Sub Eng

Нові коментарі

Нова тема   Відповісти
Автор Повідомлення
Anonymous 







2017-05-09 23:27  
Діамантовий полісмен / Діамантовий поліцейський / Blue Streak (1999) 1080p 2xUkr/Eng | Sub Eng

Діамантовий полісмен / Діамантовий поліцейський / Blue Streak (1999) 1080p 2xUkr/Eng | Sub Eng


Жанр: екшн, комедія, кримінальний
Країна: США



Кінокомпанія: Columbia Pictures, IndieProd Company Productions, Blue Streak Productions
Режисер: Лес Мейфілд (Les Mayfield)
Актори: Мартін Лоуренс (Martin Lawrence), Люк Вілсон (Luke Wilson), Пітер Ґрін (Peter Greene), Дейв Чаппель (Dave Chappelle), Ніколь Арі Паркер (Nicole Ari Parker), Ґрегем Бекель (Graham Beckel) та інші.

Сюжет:
Професійний злодій Майлс Лоґан (Мартін Лоуренс) був змушений сховати украдений ним діамант на суму 20 млн $ на будівельному майданчику. Вийшовши з в'язниці через 2 роки, він відправляється за своєю здобиччю і з жахом виявляє, що на місці, де захований його скарб, височиє поліцейська дільниця. Щоб дістатися до коштовності, Майлс змушений зображати з себе поліцейського детектива.


Тривалість: 01:34:06
Якість: 1080p
Відео:
кодек:
розмір кадру: 1920 х 1040
бітрейт: 18.0 Мб/с

Аудіо # 1:
мова: українська
переклад: двоголосий закадровий
кодек: 2.0
бітрейт: 192 кб/с
перекладено як: Діамантовий полісмен
Інформація про озвучення

Текст читали актори: Андрій Твердак та один жіночий

Запис звуку з трансляції телеканалу "1+1" (VHS).
Аудіо # 2:
мова: українська
переклад: багатоголосий закадровий
кодек: 2.0
бітрейт: 192 кб/с
перекладено як: Діамантовий поліцейський
Інформація про озвучення

Текст читали актори: Мартін Лоуренс - Володимир Терещук, Люк Вілсон - Олег Стальчук, Вільям Форсайт - Анатолій Пашнін та Наталя Задніпровська

Запис звуку з трансляції телеканалу "ТРК Україна" (SAT).
Аудіо # 3:
мова: англійська
переклад: оригінал
кодек: 5.1
бітрейт: 1509 кб/с

Джерело озвучення:
/

Субтитри:
мова: англійська
тип: програмні (м'які)
формат: *.srt
Info
General
Unique ID : 180903923730671343731657026636234844345 (0x8818D41083EEEBEDA16254FC2EAB68B9)
Format :
Format version : Version 4 / Version 2
File size : 13.3 GiB
Duration : 1 h 34 min
Overall bit rate : 20.2 Mb/s
Movie name : Blue Streak (1999) 1080p [2xUkr.Eng Sub.Eng] [Hurtom-HDClub]
Encoded date : UTC 2017-05-09 18:45:49
Writing application : mkvmerge v6.1.0 ('Old Devil') built on Mar 2 2013 14:32:37
Writing library : libebml v1.3.0 + libmatroska v1.4.0
Cover : Yes
Attachments : Cover.jpg

Video
ID : 1
Format : AVC
Format/Info : Advanced Video Codec
Format profile : [email protected]
Format settings, CABAC : Yes
Format settings, ReFrames : 4 frames
Codec ID : V_MPEG4/ISO/AVC
Duration : 1 h 34 min
Bit rate : 18.0 Mb/s
Width : 1 920 pixels
Height : 1 040 pixels
Display aspect ratio : 1.85:1
Frame rate mode : Constant
Frame rate : 23.976 (24000/1001) FPS
Color space : YUV
Chroma subsampling : 4:2:0
Bit depth : 8 bits
Scan type : Progressive
Bits/(Pixel*Frame) : 0.375
Stream size : 11.8 GiB (89%)
Title : Blue Streak (1999) 1080p [2xUkr.Eng Sub.Eng] [Hurtom-HDClub]
Writing library : core 144 r2525kMod 40bb568
Encoding settings : cabac=1 / ref=4 / deblock=1:-3:-3 / analyse=0x3:0x133 / me=umh / subme=11 / psy=1 / fade_compensate=0.00 / psy_rd=1.00:0.00 / mixed_ref=1 / me_range=32 / chroma_me=1 / trellis=2 / 8x8dct=1 / cqm=0 / deadzone=21,11 / fast_pskip=1 / chroma_qp_offset=-2 / threads=12 / lookahead_threads=2 / sliced_threads=0 / nr=0 / decimate=1 / interlaced=0 / bluray_compat=0 / constrained_intra=0 / fgo=0 / bframes=9 / b_pyramid=2 / b_adapt=2 / b_bias=0 / direct=1 / weightb=1 / open_gop=0 / weightp=2 / keyint=250 / keyint_min=23 / scenecut=40 / intra_refresh=0 / rc_lookahead=60 / rc=crf / mbtree=0 / crf=18.5000 / qcomp=0.60 / qpmin=0 / qpmax=69 / qpstep=4 / vbv_maxrate=62500 / vbv_bufsize=78125 / crf_max=0.0 / nal_hrd=none / filler=0 / ip_ratio=1.40 / pb_ratio=1.30 / aq=1:0.80
Language : English
Default : Yes
Forced : No
Color range : Limited
Color primaries : BT.709
Transfer characteristics : BT.709
Matrix coefficients : BT.709

Audio #1
ID : 2
Format : AC-3
Format/Info : Audio Coding 3
Format settings, Endianness : Big
Codec ID : A_AC3
Duration : 1 h 34 min
Bit rate mode : Constant
Bit rate : 192 kb/s
Channel(s) : 2 channels
Channel positions : Front: L R
Sampling rate : 48.0 kHz
Frame rate : 31.250 FPS (1536 spf)
Bit depth : 16 bits
Compression mode : Lossy
Stream size : 129 MiB (1%)
Title : DVO | 1+1 (VHS) | 2.0 | 192 kb/s
Language : Ukrainian
Service kind : Complete Main
Default : Yes
Forced : No

Audio #2
ID : 3
Format : AC-3
Format/Info : Audio Coding 3
Format settings, Endianness : Big
Codec ID : A_AC3
Duration : 1 h 34 min
Bit rate mode : Constant
Bit rate : 192 kb/s
Channel(s) : 2 channels
Channel positions : Front: L R
Sampling rate : 48.0 kHz
Frame rate : 31.250 FPS (1536 spf)
Bit depth : 16 bits
Compression mode : Lossy
Stream size : 129 MiB (1%)
Title : MVO | TRK ''Ukraine'' | 2.0 | 192 kb/s
Language : Ukrainian
Service kind : Complete Main
Default : No
Forced : No

Audio #3
ID : 4
Format :
Format/Info : Digital Theater Systems
Mode : 16
Format settings, Endianness : Big
Codec ID : A_DTS
Duration : 1 h 34 min
Bit rate mode : Constant
Bit rate : 1 509 kb/s
Channel(s) : 6 channels
Channel positions : Front: L C R, Side: L R, LFE
Sampling rate : 48.0 kHz
Frame rate : 93.750 FPS (512 spf)
Bit depth : 16 bits
Compression mode : Lossy
Stream size : 1 016 MiB (7%)
Title : Original
Language : English
Default : No
Forced : No

Text
ID : 5
Format : UTF-8
Codec ID : S_TEXT/UTF8
Codec ID/Info : UTF-8 Plain Text
Title : Original
Language : English
Default : No
Forced : No

Menu
00:00:00.000 : en:The Robbery
00:11:04.330 : en:X Marks the Spot
00:18:03.082 : en:Pizza Man
00:22:22.382 : en:Officer Malone - LAPD
00:30:13.895 : en:Burglery Investigation
00:35:49.313 : en:Liquor Store Hoist
00:38:51.245 : en:Alley Shoot-Out
00:47:50.492 : en:Police Meeting
00:50:29.026 : en:Interrogating Tulley
00:56:26.257 : en:Airport Crime Scene
01:03:15.124 : en:Old School Training
01:07:44.477 : en:Getting Wired
01:11:27.533 : en:Warehouse Three
01:17:29.144 : en:Sting Operation
01:23:10.986 : en:Showdown
01:27:58.189 : en:Free Man
Скріншоти















Джерело: &
Подяки:
Пану Sharper за запис доріжки №1 (VHS), та пану MAKAPOHHIK за запис доріжки №2.
За опис та сихронізацію дякую панам: Skiff та robotron005
Також дякую пану Skazhutin (HDClub) за працю над цим релізом.
Особиста оцінка: 10 - без зайвих вагань рекомендую всім!


Срібний реліз (на рейтинг впливає 50% завантаженого)
 Трекер:    Зареєстрований   

Завантажити / скачати фільм українською



відео для новачків



 Зареєстрований:   2017-05-09 23:32
 Розмір:   13.31 GB 
 Оцінка фільму:   9.4/10 (Голосів: 8)
   
EvGaS 
Відео Гуртом - субтитрування
Відео Гуртом - субтитрування


З нами з: 27.02.12
Востаннє: 18.10.17
Повідомлень: 4087

2017-05-10 06:58  
Пам’ятаю його — посереднє кіно на раз із посереднім гумором (не сортирний, але й не щось зарозуміле). Коли хочеться чогось легкого та не напружуватись — у самий раз. Можна навіть сказати, що це певного роду гуморна калька на усіляке поліцейське кіно.
Ваш часовий пояс: GMT + 2 Години

Нова тема   Відповісти