Сімейне пограбування / Mes trésors (2017) 1080p Ukr/Fre

Нові коментарі

Нова тема   Відповісти
Автор Повідомлення
Anonymous 







2017-05-09 21:14  
Сімейне пограбування / Mes trésors (2017) 1080p Ukr/Fre

Сімейне пограбування / Mes trésors (2017) 1080p Ukr/Fre

Жанр: комедія
Країна: Франція



Кінокомпанія: Radar Films, Forecast Pictures, SND Films
Режисер: Паскаль Бюрдо / Pascal Bourdiaux
Актори: Жан Рено / Jean Reno, Рем Керісі / Reem Kherici, Каміль Шаму / Camille Chamoux, Паскаль Демолон / Pascal Demolon, Бруно Санчес / Bruno Sanches, Жан Рейнес / Jean Reynès, Маріон Брієт / Marion Briet, Джудж Т'єррі / Juge Thierry, Зіна Есепсьюк / Zina Esepciuc та інші

Сюжет:
Дві абсолютні протилежності, дівчата Кароль та Каролін дізнаються, що вони – зведені сестри, а їх батько зовсім недавно помер і заповів дочкам будиночок у відомому Куршавелі. Серед заметів вони знаходять цю хатинку ... а разом з нею і живого тата Патріка. Він вирішив зібрати своїх дочок, щоб провернути одну справу – вкрасти скрипку Страдіварі вартістю 15 мільйонів. Патрік продумав геніальний сценарій, як це зробити, але все пішло зовсім не за планом... Чи зможе сімейка дістати коштовність?

Вікова категорія: 16+
Тривалість: 01:30:38
Якість: 1080p
Відео:
кодек:
розмір кадру: 1920 x 800
бітрейт: 11401 кб/с [crf=16]

Аудіо # 1:
мова: українська
переклад: професійний дубльований | Pie Post Production
кодек: 2.0
бітрейт: 192 кб/с
Інформація про дубляж:
Переклад: Надія Вальнюк
Режисер дубляжу: Лідія Громовенко
Звукорежисер: Віталій Ящук
Звукорежисер перезапису: Максим Пономарчук
Ролі дублювали: Лідія Муращенко, Юлія Перенчук, Борис Георгієвський, Андрій Мостренко, Олександр Погребняк, Дмитро Гаврилов, Володимир Кокотунов, Анна Соболєва, Дмитро Вікулов, Юрій Кудрявець та інші
Фільм дубльовано компанією Pie Post Production на замовлення Ukrainian Film Distribution
Аудіо # 2:
мова: французька
переклад: оригінал
кодек: 5.1
бітрейт: 384 кб/с

Збережено оригінальні розділи
Info та log
Код:
Complete name               : Mes tresors (2017) [Ukr,Fre] 1080p [Hurtom].
Format                      :
Format version              : Version 4 / Version 2
File size                   : 7.59 GiB
Duration                    : 1 h 30 min
Overall bit rate            : 12.0 Mb/s
Movie name                  : Cімейне пограбування / Mes trésors (tresors) / Family Heist (2017) [Ukr,Fre] 1080p [Hurtom]
Released date               : 2017
Cover                       : Yes
Comment                     : http://www.imdb.com/title/tt5286268/
Attachments                 : cover.jpg / logfile.log
ARTIST                      : Жан Рено / Jean Reno, Рем Керісі / Reem Kherici, Каміль Шаму / Camille Chamoux, Паскаль Демолон / Pascal Demolon, Бруно Санчес / Bruno Sanches, Жан Рейнес / Jean Reynès, Маріон Брієт / Marion Briet, Джудж Т'єррі / Juge Thierry, Зіна Есепсьюк / Zina Esepciuc та інші
DIRECTOR                    : Паскаль Бюрдо / Pascal Bourdiaux
GENRE                       : комедія
SYNOPSIS                    : Дві абсолютні протилежності, дівчата Керолайн і Керолл (в дубляжі Анжеліка і Анжела) дізнаються, що вони – зведені сестри, а їх батько зовсім недавно помер і заповів дочкам будиночок у відомому Куршавелі. Серед заметів вони знаходять цю хатинку ... а разом з нею і живого тата Патріка. Він вирішив зібрати своїх дочок, щоб провернути одну справу – вкрасти скрипку Страдіварі вартістю 15 мільйонів. Патрік продумав геніальний сценарій, як це зробити, але все пішло зовсім не за планом... Чи зможе сімейка дістати коштовність?
Url                         : https://toloka.to/t81851

Video
ID                          : 1
Format                      : AVC
Format/Info                 : Advanced Video Codec
Format profile              : [email protected]
Format settings, CABAC      : Yes
Format settings, RefFrames  : 5 frames
Codec ID                    : V_MPEG4/ISO/AVC
Duration                    : 1 h 30 min
Bit rate                    : 11.4 Mb/s
Width                       : 1 920 pixels
Height                      : 800 pixels
Display aspect ratio        : 2.40:1
Frame rate mode             : Constant
Frame rate                  : 24.000 FPS
Color space                 : YUV
Chroma subsampling          : 4:2:0
Bit depth                   : 8 bits
Scan type                   : Progressive
Bits/(Pixel*Frame)          : 0.309
Stream size                 : 7.22 GiB (95%)
Title                       : Сімейне пограбування / Mes trésors (2017) 1080p [RUS Blu-ray, HDClub]
Writing library             : core 152 r2851kMod ba24899
Encoding settings           : cabac=1 / ref=5 / deblock=1:-3:-3 / analyse=0x3:0x133 / me=umh / subme=11 / psy=1 / fade_compensate=0.00 / psy_rd=1.00:0.00 / mixed_ref=1 / me_range=32 / chroma_me=1 / trellis=2 / 8x8dct=1 / cqm=0 / deadzone=21,11 / fast_pskip=0 / chroma_qp_offset=-2 / threads=12 / lookahead_threads=2 / sliced_threads=0 / nr=0 / decimate=0 / interlaced=0 / bluray_compat=0 / constrained_intra=0 / bframes=8 / b_pyramid=2 / b_adapt=2 / b_bias=0 / direct=3 / weightb=1 / open_gop=0 / weightp=2 / keyint=240 / keyint_min=24 / scenecut=40 / intra_refresh=0 / rc_lookahead=50 / rc=crf / mbtree=0 / crf=16.0000 / qcomp=0.60 / qpmin=0 / qpmax=69 / qpstep=4 / vbv_maxrate=62500 / vbv_bufsize=78125 / crf_max=0.0 / nal_hrd=none / filler=0 / ip_ratio=1.40 / pb_ratio=1.30 / aq=1:0.70
Language                    : French
Default                     : Yes
Forced                      : No

Audio #1
ID                          : 2
Format                      : AC-3
Format/Info                 : Audio Coding 3
Format settings, Endianness : Big
Codec ID                    : A_AC3
Duration                    : 1 h 30 min
Bit rate mode               : Constant
Bit rate                    : 192 kb/s
Channel(s)                  : 2 channels
Channel positions           : Front: L R
Sampling rate               : 48.0 kHz
Frame rate                  : 31.250 FPS (1536 SPF)
Bit depth                   : 16 bits
Compression mode            : Lossy
Stream size                 : 124 MiB (2%)
Title                       : Dub [Pie Post Production, Line] 2.0 192 Kbps [Hurtom-Covenant]
Language                    : Ukrainian
Service kind                : Complete Main
Default                     : Yes
Forced                      : Yes

Audio #2
ID                          : 3
Format                      : AC-3
Format/Info                 : Audio Coding 3
Format settings, Endianness : Big
Codec ID                    : A_AC3
Duration                    : 1 h 30 min
Bit rate mode               : Constant
Bit rate                    : 384 kb/s
Channel(s)                  : 6 channels
Channel positions           : Front: L C R, Side: L R, LFE
Sampling rate               : 48.0 kHz
Frame rate                  : 31.250 FPS (1536 SPF)
Bit depth                   : 16 bits
Compression mode            : Lossy
Stream size                 : 249 MiB (3%)
Title                       : Original, 5.1 384 kbps
Language                    : French
Service kind                : Complete Main
Default                     : No
Forced                      : No

Menu
00:00:00.000                : :Chapter 01
00:00:41.250                : :Chapter 02
00:10:19.666                : :Chapter 03
00:21:48.458                : :Chapter 04
00:31:16.875                : :Chapter 05
00:43:53.666                : :Chapter 06
00:57:39.791                : :Chapter 07
01:08:40.416                : :Chapter 08
01:17:47.500                : :Chapter 09


Код:
raw [info]: 1920x800p 1:1 @ 24/1 fps (cfr)
[info]: using SAR=1/1
[info]: using cpu capabilities: MMX2 SSE2Fast LZCNT SSSE3 SSE4.2 AVX XOP FMA4
[info]: profile High, level 4.1
[info]: frame I:1251  Avg QP:13.80  size:173956
[info]: frame P:28462 Avg QP:15.47  size:103102
[info]: frame B:100821 Avg QP:17.26  size: 45619
[info]: consecutive B-frames:  2.0%  2.6%  6.0% 25.4% 23.4% 28.5%  8.3%  1.4%  2.3%
[info]: mb I  I16..4: 17.0% 49.2% 33.8%
[info]: mb P  I16..4:  9.7% 24.2%  7.9%  P16..4: 20.7% 23.6%  8.0%  1.4%  0.1%    skip: 4.4%
[info]: mb B  I16..4:  6.0%  5.0%  2.4%  B16..8: 32.0% 19.0%  3.2%  direct:11.7%  skip:20.8%  L0:43.7% L1:37.8% BI:18.4%
[info]: 8x8 transform intra:47.1% inter:43.0%
[info]: direct mvs  spatial:100.0% temporal:0.0%
[info]: coded y,uvDC,uvAC intra: 87.3% 86.6% 73.0% inter: 43.4% 44.0% 18.0%
[info]: i16 v,h,dc,p: 12% 11% 41% 36%
[info]: i8 v,h,dc,ddl,ddr,vr,hd,vl,hu: 13%  9% 19%  8%  9% 10%  9% 11% 12%
[info]: i4 v,h,dc,ddl,ddr,vr,hd,vl,hu: 17% 11% 36%  4%  7%  7%  6%  5%  7%
[info]: i8c dc,h,v,p: 45% 22% 20% 13%
[info]: Weighted P-Frames: Y:3.8% UV:2.5%
[info]: ref P L0: 49.7% 10.9% 21.5%  8.9%  8.8%  0.3%  0.0%
[info]: ref B L0: 81.7% 12.5%  4.6%  1.2%
[info]: ref B L1: 96.1%  3.9%
[info]: kb/s:11401.56
encoded 130534 frames, 4.80 fps, 11401.56 kb/s, duration 7:33:38.41



Український звук придбано завдяки темі "Контент для придбання"


Джерело: &
Подяка Covenant'у за українську доріжку. 800й реліз


 Трекер:    Зареєстрований   

Завантажити / скачати фільм українською



відео для новачків



 Зареєстрований:   2017-08-13 21:20
 Розмір:   7.59 GB 
 Оцінка фільму:   7.2/10 (Голосів: 38)
   
Інші релізи
   Сімейне пограбування / Mes trésors (2017) AVC Ukr/Fre 11FrYkT  28 / 0   1.55 GB   2017-08-02 18:28 
   Сімейне пограбування / Mes trésors (2017) 720p Ukr/Fre 11FrYkT  8 / 0   3.89 GB   2017-08-02 18:24 
   Сімейне пограбування / Mes trésors (2017) Covenant  113 / 1   1.45 GB   2017-05-09 20:38 
demetrius52 
Свій


З нами з: 02.04.17
Востаннє: 21.10.17
Повідомлень: 62

2017-05-10 12:07  
Anonymous
фільм дубльовано студією Pie Post Production. Після закічення фільму є інформація про дубляж

kiboal 
Свій


З нами з: 25.12.14
Востаннє: 22.10.17
Повідомлень: 71

2017-05-11 19:31  
на постері такі красиві дівчата качну=)
mutomba 
Поважний учасник


З нами з: 20.10.13
Востаннє: 22.10.17
Повідомлень: 204

2017-05-12 21:04  
ну таке кіно... на раз подивитись )
рейтинг вказаний вірно

GlossaVK 
Новенький


З нами з: 26.06.13
Востаннє: 21.10.17
Повідомлень: 18

2017-06-07 22:05  
Фільм можна дивитись, але знову прикро, що французький фільм перекладають з російської, особливо залишаючи російську назву, яка, зазвичай, запарєбріком свідомо спотворюється. Наприклад, українською назва краще була б "Мої щастячка", що більше відповідає ідеї фільму, а найголовніше - французькому значенню Mes trésors.
AMOROSO 
Частий відвідувач


З нами з: 01.01.12
Востаннє: 20.10.17
Повідомлень: 27

2017-06-25 14:46  
Фільм так собі, дивився тільки тому, що не було нічого кращого
Uberwinder 
Свій


З нами з: 18.11.16
Востаннє: 23.10.17
Повідомлень: 139

2017-07-20 20:00  
Фільм повністю побудований на шаблонах, але для одноразового перегляду цілком підійде.
А дівчатка у головних ролях дійсно файні)))

Anonymous 







2017-08-13 21:22  
Реліз оновлено, замінено відеоряд на BDRіp.
золото на тиждень

kinaxem 
Свій


З нами з: 21.12.16
Востаннє: 23.10.17
Повідомлень: 104

2017-08-14 10:41  
А звук оновлюватись не буде?
Anonymous 







2017-08-14 11:18  
буде, якщо хтось придбає.
Ваш часовий пояс: GMT + 2 Години

Нова тема   Відповісти