Під маскою жиголо / Fading Gigolo (2013) 720p Ukr/Eng | Sub Eng

Нові коментарі

Нова тема   Відповісти
Автор Повідомлення
Anonymous 







2017-05-09 15:31  
Під маскою жиголо / Fading Gigolo (2013) 720p Ukr/Eng | Sub Eng


Жанр: комедія
Країна: США



Кінокомпанія: Antidote Films (I), Covert Media
Режисер: Джон Туртурро / John Turturro
Актори: Джон Туртурро / John Turturro, Вуді Аллен / Woody Allen, Шерон Стоун / Sharon Stone, Софія Верґара / Sofía Vergara, Ванесса Параді / Vanessa Paradis, Лів Шрайбер / Liev Schreiber, Тоня Пінкінс / Tonya Pinkins, Обрі Джозеф / Aubrey Joseph, Данте Гоаґленд / Dante Hoagland та інші

Сюжет:
Щоб вирішити матеріальні проблеми свого друга, безнадійного невдахи Мюррея, красень солідних років Фіораванті вирішує зайнятися оригінальним бізнесом: заробляти, набиваючись в коханці до заможних жінок. Мюррей стає його агентом-сутенером і починає активно розкручувати справу. Але після низки комічних ляпів і ганебних провалів стає очевидно, що хлопці пливуть проти течії грошей і любові...

Рейтинг MPAA: R - особам до 17 років обов'язкова присутність батьків або дорослого опікуна
Вікова категорія: 16+
Тривалість: 01:29:59
Якість: 720p
Відео:
кодек:
розмір кадру: 1280 х 690
бітрейт: 5567 кб/с [crf=18]

Аудіо # 1:
мова: українська
переклад: багатоголосий закадровий
кодек: 2.0
бітрейт: 192 кб/с

Аудіо # 2:
мова: англійська
переклад: оригінал
кодек: 5.1
бітрейт: 640 кб/с

Субтитри:
мова: англійська
тип: програмні (м'які)
формат: *.srt

Збережено оригінальні розділи, як на Blu-ray
Info та log
Код:
Complete name               : Fading Gigolo (2013) [Ukr,Eng sub.Eng] 720p [Hurtom].
Format                      :
Format version              : Version 4 / Version 2
File size                   : 4.02 GiB
Duration                    : 1 h 29 min
Overall bit rate            : 6 401 kb/s
Movie name                  : Під маскою жиголо / Fading Gigolo (2013) [Ukr,Eng sub.Eng] 720p [Hurtom]
Released date               : 2013
Cover                       : Yes
Comment                     : http://www.imdb.com/title/tt2258345/
Attachments                 : cover.jpg
ARTIST                      : Джон Туртурро / John Turturro, Вуді Аллен / Woody Allen, Шерон Стоун / Sharon Stone, Софія Верґара / Sofía Vergara, Ванесса Параді / Vanessa Paradis, Лів Шрайбер / Liev Schreiber, Тоня Пінкінс / Tonya Pinkins, Обрі Джозеф / Aubrey Joseph, Данте Гоаґленд / Dante Hoagland та інші
DIRECTOR                    : Джон Туртурро / John Turturro
GENRE                       : комедія
SYNOPSIS                    : Щоб вирішити матеріальні проблеми свого друга, безнадійного невдахи Мюррея, красень солідних років Фіораванті вирішує зайнятися оригінальним бізнесом: заробляти, набиваючись в коханці до заможних жінок. Мюррей стає його агентом-сутенером і починає активно розкручувати справу. Але після низки комічних ляпів і ганебних провалів стає очевидно, що хлопці пливуть проти течії грошей і любові...
Url                         : https://toloka.to/t81844

Video
ID                          : 1
Format                      : AVC
Format/Info                 : Advanced Video Codec
Format profile              : [email protected]
Format settings, CABAC      : Yes
Format settings, ReFrames   : 9 frames
Codec ID                    : V_MPEG4/ISO/AVC
Duration                    : 1 h 29 min
Bit rate                    : 5 567 kb/s
Width                       : 1 280 pixels
Height                      : 690 pixels
Display aspect ratio        : 1.85:1
Frame rate mode             : Constant
Frame rate                  : 23.976 (24000/1001) FPS
Color space                 : YUV
Chroma subsampling          : 4:2:0
Bit depth                   : 8 bits
Scan type                   : Progressive
Bits/(Pixel*Frame)          : 0.263
Stream size                 : 3.50 GiB (87%)
Title                       : Під маскою жиголо / Fading Gigolo (2013) 720p [STarankov]
Writing library             : core 142 r2431 ac76440
Encoding settings           : cabac=1 / ref=9 / deblock=1:-1:-1 / analyse=0x3:0x113 / me=umh / subme=10 / psy=1 / psy_rd=1.00:0.15 / mixed_ref=1 / me_range=32 / chroma_me=1 / trellis=2 / 8x8dct=1 / cqm=0 / deadzone=21,11 / fast_pskip=0 / chroma_qp_offset=-3 / threads=6 / lookahead_threads=1 / sliced_threads=0 / nr=0 / decimate=1 / interlaced=0 / bluray_compat=0 / constrained_intra=0 / bframes=8 / b_pyramid=2 / b_adapt=2 / b_bias=0 / direct=1 / weightb=1 / open_gop=0 / weightp=2 / keyint=230 / keyint_min=23 / scenecut=40 / intra_refresh=0 / rc_lookahead=40 / rc=crf / mbtree=0 / crf=18.0 / qcomp=0.60 / qpmin=0 / qpmax=69 / qpstep=4 / vbv_maxrate=40000 / vbv_bufsize=50000 / crf_max=0.0 / nal_hrd=none / filler=0 / ip_ratio=1.40 / pb_ratio=1.30 / aq=1:1.00
Language                    : English
Default                     : Yes
Forced                      : No

Audio #1
ID                          : 2
Format                      : AC-3
Format/Info                 : Audio Coding 3
Format settings, Endianness : Big
Codec ID                    : A_AC3
Duration                    : 1 h 29 min
Bit rate mode               : Constant
Bit rate                    : 192 kb/s
Channel(s)                  : 2 channels
Channel positions           : Front: L R
Sampling rate               : 48.0 kHz
Frame rate                  : 31.250 FPS (1536 spf)
Bit depth                   : 16 bits
Compression mode            : Lossy
Stream size                 : 124 MiB (3%)
Title                       : MVO [Volya Cine+] 2.0 192 Kbps [Hurtom-Gelios, Sando7]
Language                    : Ukrainian
Service kind                : Complete Main
Default                     : Yes
Forced                      : Yes

Audio #2
ID                          : 3
Format                      : AC-3
Format/Info                 : Audio Coding 3
Format settings, Endianness : Big
Codec ID                    : A_AC3
Duration                    : 1 h 29 min
Bit rate mode               : Constant
Bit rate                    : 640 kb/s
Channel(s)                  : 6 channels
Channel positions           : Front: L C R, Side: L R, LFE
Sampling rate               : 48.0 kHz
Frame rate                  : 31.250 FPS (1536 spf)
Bit depth                   : 16 bits
Compression mode            : Lossy
Stream size                 : 412 MiB (10%)
Title                       : Original, 5.1 640 Kbps
Language                    : English
Service kind                : Complete Main
Default                     : No
Forced                      : No

Text
ID                          : 4
Format                      : UTF-8
Codec ID                    : S_TEXT/UTF8
Codec ID/Info               : UTF-8 Plain Text
Duration                    : 1 h 23 min
Bit rate                    : 58 b/s
Count of elements           : 1333
Stream size                 : 35.6 KiB (0%)
Title                       : Eng SDH
Language                    : English
Default                     : No
Forced                      : No

Menu
00:00:00.000                : :Chapter 01
00:08:48.528                : :Chapter 02
00:16:42.876                : :Chapter 03
00:27:44.663                : :Chapter 04
00:33:42.812                : :Chapter 05
00:43:01.579                : :Chapter 06
00:51:21.495                : :Chapter 07
00:57:07.257                : :Chapter 08
01:01:33.481                : :Chapter 09
01:10:18.005                : :Chapter 10
01:16:28.000                : :Chapter 11
01:25:15.318                : :Chapter 12
01:29:59.602                : :Chapter 13

Код:
frame I:972 Avg QP:15.03 size:146528
frame P:23662 Avg QP:16.32 size: 54289
frame B:104833 Avg QP:18.43 size: 22230
Порівняння скріншотів оригіналу та цього ріпу


Джерело: &
Подяка Gelios'у за укр.звук та постер, Sando7 за запис з ТБ


 Трекер:    Зареєстрований   

Завантажити / скачати фільм українською



відео для новачків



 Зареєстрований:   2017-05-09 16:23
 Розмір:   4.02 GB 
 Оцінка фільму:   4.4/10 (Голосів: 16)
   
Інші релізи
   Під маскою жиголо / Fading Gigolo (2013) Ukr/Eng Gelios  15 / 0   1.45 GB   2017-05-09 13:56 
casper101 
Поважний учасник


З нами з: 03.12.09
Востаннє: 20.10.17
Повідомлень: 232

2017-05-09 17:28  
як фільм???
hetzendorf 
Відео Гуртом - підтримка та поширення
Відео Гуртом - підтримка та поширення


З нами з: 23.07.15
Востаннє: 21.10.17
Повідомлень: 496

2017-05-09 21:41  
Ой, бачив це колись… >_< Надзвичайно нудне й огидне >_<
1/10

EvGaS 
Відео Гуртом - субтитрування
Відео Гуртом - субтитрування


З нами з: 27.02.12
Востаннє: 20.10.17
Повідомлень: 4095

2017-05-10 06:51  
hetzendorf написано:
Ой, бачив це колись… >_< Надзвичайно нудне й огидне >_<

Челентано кадрить веселіш? Wide grin

hetzendorf 
Відео Гуртом - підтримка та поширення
Відео Гуртом - підтримка та поширення


З нами з: 23.07.15
Востаннє: 21.10.17
Повідомлень: 496

2017-05-10 12:34  
EvGaS
Не второпав @[email protected] Якесь порівняння теплого з м'яким >_<

Ваш часовий пояс: GMT + 2 Години

Нова тема   Відповісти