Nokturnal Mortum - Істина (2017) [FLAC] | Folk Symphonic Black Metal

Нові коментарі

Нова тема   Відповісти
Автор Повідомлення
kolpavel 
VIP


З нами з: 04.05.14
Востаннє: 23.05.17
Повідомлень: 1132

2017-05-09 12:19  
Nokturnal Mortum - Істина (2017) [FLAC] | Folk Symphonic Black Metal

Nokturnal Mortum - Істина (2017) [FLAC] | Folk Symphonic Black Metal


Стиль: Folk Symphonic Black Metal
Країна, місто: Україна, Харків
Сайти: Офіційний сайт
Видавець: Oriana Productions (Каталог ID: OMCD21)
Виконавці:
Varggoth – гітари, вокал, клавішні
Jurgis – гітари, бек-вокал
Rutnar – бас
Bairoth – ударні
Hyozt – клавішні

Пісні:
    01. Зустріну тебе в iмлі старій(intro) / I’ll Meet You in Ancient Darkness (intro) - 02:39
    02. Мольфа / Molfa - 08:33
    03. З чортом за пазухою / With Chort in My Bosom -06:04
    04. Смерековий дід / Spruce Elder - 04:49
    05. Пісня Хуги / Song of the Snowstorm - 08:23
    06. Вовчі ягоди / Wolfish Berries - 09:02
    07. У човні з дурнями / In the Boat with Fools - 06:26
    08. Дика вира / Wild Weregild - 06:43
    09. Ліра / Lira (KOMU VNYZ cover) 05:08
    10. Чорний мед / Black Honey - 03:42
    11. Ніч богів / Night of the Gods 09:14
    12. Куди пливуть вінки рікою? / Where Do the Wreaths Float Down the River? (outro) - 03:43


Тривалість: 01:14:29
Мова: українська
Аудіо-кодек: FLAC
Бітрейт: 1026 кб/с
Джерело: трекер
Додаткова інформація:
EAC
Exact Audio Copy V1.1 from 23. June 2015

Отчёт EAC об извлечении, выполненном 12. мая 2017, 18:51

Nokturnal Mortum / Verity

Дисковод: ASUS DRW-24F1MT Adapter: 1 ID: 0

Режим чтения : Достоверность
Использование точного потока : Да
Отключение кэша аудио : Да
Использование указателей C2 : Нет

Коррекция смещения при чтении : 6
Способность читать области Lead-in и Lead-out : Нет
Заполнение пропущенных сэмплов тишиной : Да
Удаление блоков с тишиной в начале и конце : Нет
При вычислениях CRC использовались нулевые сэмплы : Да
Интерфейс : Встроенный Win32-интерфейс для Win NT/2000

Выходной формат : Пользовательский кодировщик
Выбранный битрейт : 1024 kBit/s
Качество : Высокий
Добавление ID3-тега : Нет
Утилита сжатия : C:\Program Files (x86)\Exact Audio Copy\Flac\flac.exe
Дополнительные параметры : -V -8 -T "Date=%year%" -T "Genre=%genre%" %source%

TOC извлечённого CD

Трек | Старт | Длительность | Начальный сектор | Конечный сектор
---------------------------------------------------------------------
1 | 0:00.00 | 2:39.71 | 0 | 11995
2 | 2:39.71 | 8:33.04 | 11996 | 50474
3 | 11:13.00 | 6:04.37 | 50475 | 77811
4 | 17:17.37 | 4:49.00 | 77812 | 99486
5 | 22:06.37 | 8:23.00 | 99487 | 137211
6 | 30:29.37 | 9:02.00 | 137212 | 177861
7 | 39:31.37 | 6:26.13 | 177862 | 206824
8 | 45:57.50 | 6:43.31 | 206825 | 237080
9 | 52:41.06 | 5:08.00 | 237081 | 260180
10 | 57:49.06 | 3:42.00 | 260181 | 276830
11 | 61:31.06 | 9:14.18 | 276831 | 318398
12 | 70:45.24 | 3:43.56 | 318399 | 335179

Характеристики диапазона извлечения и сообщения об ошибках

Выбранный диапазон

Имя файла G:\ВСЕ ЗАГРУЗКИ\sking\Nokturnal Mortum - Verity (2017)\Nokturnal Mortum - Verity.wav

Пиковый уровень 98.8 %
Скорость извлечения 8.0 X
Качество диапазона 99.9 %
CRC теста 2FE95C96
CRC копии 2FE95C96
Копирование... OK

Ошибок не произошло

AccurateRip: сводка

Трек 1 отсутствует в базе данных
Трек 2 отсутствует в базе данных
Трек 3 отсутствует в базе данных
Трек 4 отсутствует в базе данных
Трек 5 отсутствует в базе данных
Трек 6 отсутствует в базе данных
Трек 7 отсутствует в базе данных
Трек 8 отсутствует в базе данных
Трек 9 отсутствует в базе данных
Трек 10 отсутствует в базе данных
Трек 11 отсутствует в базе данных
Трек 12 отсутствует в базе данных

Ни одного трека нет в базе AccurateRip

Конец отчёта

---- CUETools DB Plugin V2.1.6

[CTDB TOCID: 1b4fngO7eJXPUQPJbUwR7nkcO2w-] found
Submit result: 1b4fngO7eJXPUQPJbUwR7nkcO2w- has been confirmed
Track | CTDB Status
1 | (2/2) Accurately ripped
2 | (2/2) Accurately ripped
3 | (2/2) Accurately ripped
4 | (2/2) Accurately ripped
5 | (2/2) Accurately ripped
6 | (2/2) Accurately ripped
7 | (2/2) Accurately ripped
8 | (2/2) Accurately ripped
9 | (2/2) Accurately ripped
10 | (2/2) Accurately ripped
11 | (2/2) Accurately ripped
12 | (2/2) Accurately ripped

==== Контрольная сумма отчёта 1083DDBD88BF6F5648B97E27B435AEBFDDF221775D9FAEE52E5CD4BCAF2D7CCD ====
(.CUE)
REM GENRE Metal
REM DATE 2017
REM DISCID AC11750C
REM COMMENT "ExactAudioCopy v1.1"
PERFORMER "Nokturnal Mortum"
TITLE "Verity"
FILE "Nokturnal Mortum - Verity.flac" WAVE
TRACK 01 AUDIO
TITLE "I'll Meet You in Ancient Darkness"
PERFORMER "Nokturnal Mortum"
INDEX 01 00:00:00
TRACK 02 AUDIO
TITLE "Molfa"
PERFORMER "Nokturnal Mortum"
INDEX 01 02:39:71
TRACK 03 AUDIO
TITLE "With Chort in My Bosom"
PERFORMER "Nokturnal Mortum"
INDEX 01 11:13:00
TRACK 04 AUDIO
TITLE "Spruce Elder"
PERFORMER "Nokturnal Mortum"
INDEX 01 17:17:37
TRACK 05 AUDIO
TITLE "Song of the Snowstorm"
PERFORMER "Nokturnal Mortum"
INDEX 01 22:06:37
TRACK 06 AUDIO
TITLE "Wolfish Berries"
PERFORMER "Nokturnal Mortum"
INDEX 01 30:29:37
TRACK 07 AUDIO
TITLE "In the Boat with Fools"
PERFORMER "Nokturnal Mortum"
INDEX 01 39:31:37
TRACK 08 AUDIO
TITLE "Wild Weregild"
PERFORMER "Nokturnal Mortum"
INDEX 01 45:57:50
TRACK 09 AUDIO
TITLE "Lira"
PERFORMER "Nokturnal Mortum"
INDEX 01 52:41:06
TRACK 10 AUDIO
TITLE "Black Honey"
PERFORMER "Nokturnal Mortum"
INDEX 01 57:49:06
TRACK 11 AUDIO
TITLE "Night of the Gods"
PERFORMER "Nokturnal Mortum"
INDEX 01 61:31:06
TRACK 12 AUDIO
TITLE "Where Do the Wreaths Float Down the River"
PERFORMER "Nokturnal Mortum"
INDEX 01 70:45:24
Українські майстри Epic Heathen Metal Art NOKTURNAL MORTUM повертаються з новим альбомом «Істина», першим повноформатним записом гурту після «Голосу сталі», що був виданий ще в далекому грудні 2009 року. Відсутність повнометражних альбомів протягом цього періоду не означає відсутності активності самої групи. У 2011 році на Oriana Music побачив
продовження
світ подвійний концертний запис «Коловорот» (вінілова версія пізніше була реалізована зусиллями Osmose Productions), а у 2016 році гурт презентував п’ятидискову ретроспективну компіляцію “22 Years Among the Sheep” (що містила також триб’ют NOKTURNAL MORTUM від груп з усього світу) та спліт-альбом “The Spirit Never Dies” зі старими друзями GRAVELAND на дисках та вінілі (за ці релізи відповідає лейбл Heritage Recordings). Крім цього, група давали концерти та проходила через зміни складу, проте слухачі очікували саме на новий великий альбом, ім’я якого, «Істина», було оголошено ще в 2010 році, невдовзі після того, як світ почув «Голос сталі».

На створення «Істини» пішло чимало часу та зусиль, але остаточний результат являє собою шедевр металевої музики, гідний всіх сподівань, злетів, падінь на важкої боротьби, що йому передували. В каталозі гурту нема й двох однакових альбомів, і «Істина» не є виключенням з цього правила. Більш похмурий та інтроспективний, ніж його славетний попередник з 2009 року, цей альбом веде слухача глибоко у царини давніх доязичницьких культів, де людина була здатна здобути прості та суворі істини буття на самоті та у прямому діалозі з природою та силами, що існують поза межами людського світу. В той же час основа для музики NOKTURNAL MORTUM залишається тією ж самою: це благородне Epic Heathen Metal мистецтво, в якому спів гітар та гуркіт барабанів підтримуються величними аранжуваннями клавішних та народних інструментів. З цих елементів народжується унікальний індивідуальний стиль, що несе в собі глибокі та міцні почуття.

Ще одна особливість NOKTURNAL MORTUM – це те, що кожна пісня альбому є самостійним монументом, відображенням правила відсутності вторинних та прохідних композицій на релізах групи в час, коли більшість альбомів навкруги звучать, як одна пісня, вже зіграна багато разів.
Особлива подяка Крістіану Валіну за геніальну обкладинку, Грегу Чандлеру та Priory Recording Studios за суперовий звук, нашому постійному дизайнерові Сіру Горгороту за чудове оформлення альбому, нашому звукорежисерові Микиті Шкуропату та всім сесійним музикантам, які допомогли нам створити цей альбом: Алаферну, Івану «Бурзу» Козакевичу, W. Angel’у, Selvans Haruspex’у, Надії Мельник, Михайлові Кужбі, Вікторії Кравець.
Якщо Ви справді бажаєте підтримати українське - після прослуховування, якщо музика вам сподобалась, придбайте ліцензійний диск. Підтримаймо вітчизняних виконавців!


Срібний реліз (на рейтинг впливає 50% завантаженого)
 Трекер:    Зареєстрований   

Завантажити / скачати українську музику



відео для новачків



 Зареєстрований:   2017-05-20 10:35
 Розмір:   631 MB 
 Оцінка музики:   9.8/10 (Голосів: 6)
   
NEOSIGNAL 
Новенький


З нами з: 19.08.12
Востаннє: 21.05.17
Повідомлень: 6

2017-05-10 21:00  
дочекалися!
kolpavel 
VIP


З нами з: 04.05.14
Востаннє: 23.05.17
Повідомлень: 1132

2017-05-20 10:52  
20 травня замінив WEB на CD Oriana Productions (Каталог ID: OMCD21)
Vasulevus 
Частий відвідувач


З нами з: 14.08.15
Востаннє: 23.05.17
Повідомлень: 33

2017-05-22 16:48  
Чесно кажучи, довго думав, чи купувати альбом (зараз досить скрутно з грошима). Однак вирішив, що 200 грн мене не врятує, зате віддячити музикантам зможу. Так що зараз вантажу з Bandcamp.
P.S. Альбом дуже сподобався після першого прослуховування.

Ваш часовий пояс: GMT + 2 Години

Нова тема   Відповісти