Щастя - ¿piensas ya en el amor? (2004) [FLAC] | Grunge / Punk

Нові коментарі

Нова тема   Відповісти
Автор Повідомлення
Popolograsso 
Новенький


З нами з: 08.07.12
Востаннє: 20.07.17
Повідомлень: 5

2017-05-09 12:06  
Щастя - ¿piensas ya en el amor? (2004) [FLAC] | Grunge / Punk

Щастя - ¿piensas ya en el amor? (2004) [FLAC] | Grunge / Punk


Стиль: Grunge, Indie Punk
Країна, місто: Україна, Київ
Сайти: Офіційний сайт
Видавець: Not on label
Виконавці:
Дмитро Остроушко: спів, гітара
Володимир Остроушко: гітара
Стас Рябокінь: бас
Андрій Єграшкін: барабани
Пісні:
    01. Голова як бомба
    02. Попелюшка
    03. Сніг
    04. Корова
    05. Іспанка (¿piensas ya en el amor?)
    06. Вальс
    07. Синці
    08. Місто вранці
    09. Код
    10. Дум
    11. Віночок
    12. Море
    13. Реп
    14. 1 2 3 4
    15. Прощавай Земля
    16. бонус трек 1
    17. бонус трек 2

Тривалість: 00:51:33
Мова: українська
Аудіо-кодек: FLAC
Бітрейт: 1024 кб/с
Джерело: власний диск
Додаткова інформація:
Лог створення ріпу:

Exact Audio Copy V1.3 from 2. September 2016

Отчёт EAC об извлечении, выполненном 9. мая 2017, 11:48

Щастя / ¿piensas ya en el amor?

Дисковод: Optiarc DVD RW AD-7740H Adapter: 1 ID: 0

Режим чтения : Достоверность
Использование точного потока : Да
Отключение кэша аудио : Да
Использование указателей C2 : Нет

Коррекция смещения при чтении : 48
Способность читать области Lead-in и Lead-out : Нет
Заполнение пропущенных сэмплов тишиной : Да
Удаление блоков с тишиной в начале и конце : Нет
При вычислениях CRC использовались нулевые сэмплы : Да
Интерфейс : Встроенный Win32-интерфейс для Win NT/2000
Обработка зазоров : Добавлено к предыдущему треку

Выходной формат : Пользовательский кодировщик
Выбранный битрейт : 1024 kBit/s
Качество : Высокий
Добавление ID3-тега : Нет
Утилита сжатия : C:\Program Files (x86)\Exact Audio Copy\FLAC\FLAC.EXE
Дополнительные параметры : -V -8 -T "Genre=%genre%" -T "Artist=%artist%" -T "Title=%title%" -T "Album=%albumtitle%" -T "Date=%year%" -T "Tracknumber=%tracknr%" -T "Comment=%comment%" %source%

TOC извлечённого CD

Трек | Старт | Длительность | Начальный сектор | Конечный сектор
---------------------------------------------------------------------
1 | 0:00.00 | 3:09.52 | 0 | 14226
2 | 3:09.52 | 3:34.39 | 14227 | 30315
3 | 6:44.16 | 3:49.03 | 30316 | 47493
4 | 10:33.19 | 2:03.09 | 47494 | 56727
5 | 12:36.28 | 4:58.27 | 56728 | 79104
6 | 17:34.55 | 1:51.49 | 79105 | 87478
7 | 19:26.29 | 2:48.08 | 87479 | 100086
8 | 22:14.37 | 2:52.33 | 100087 | 113019
9 | 25:06.70 | 1:25.31 | 113020 | 119425
10 | 26:32.26 | 2:36.17 | 119426 | 131142
11 | 29:08.43 | 2:29.53 | 131143 | 142370
12 | 31:38.21 | 5:15.07 | 142371 | 166002
13 | 36:53.28 | 2:48.62 | 166003 | 178664
14 | 39:42.15 | 2:11.00 | 178665 | 188489
15 | 41:53.15 | 1:25.41 | 188490 | 194905
16 | 43:18.56 | 1:13.03 | 194906 | 200383
17 | 44:31.59 | 7:07.02 | 200384 | 232410

Трек 1

Имя файла E:\nonmusic\torrents\Щастя - Piensas ya en el amor - 2004\01. Голова як бомба.wav

Длина предзазора 0:00:02.00

Пиковый уровень 96.6 %
Скорость извлечения 2.1 X
Качество трека 100.0 %
CRC теста CFAF7322
CRC копии CFAF7322
Трек не обнаружен в базе AccurateRip
Копирование... OK

Трек 2

Имя файла E:\nonmusic\torrents\Щастя - Piensas ya en el amor - 2004\02. Попелюшка.wav

Длина предзазора 0:00:00.66

Пиковый уровень 99.0 %
Скорость извлечения 2.4 X
Качество трека 100.0 %
CRC теста 69C38693
CRC копии 69C38693
Трек не обнаружен в базе AccurateRip
Копирование... OK

Трек 3

Имя файла E:\nonmusic\torrents\Щастя - Piensas ya en el amor - 2004\03. Сніг.wav

Длина предзазора 0:00:00.72

Пиковый уровень 93.3 %
Скорость извлечения 2.4 X
Качество трека 99.9 %
CRC теста 63D62A22
CRC копии 63D62A22
Трек не обнаружен в базе AccurateRip
Копирование... OK

Трек 4

Имя файла E:\nonmusic\torrents\Щастя - Piensas ya en el amor - 2004\04. Корова.wav

Длина предзазора 0:00:01.73

Пиковый уровень 100.0 %
Скорость извлечения 2.5 X
Качество трека 100.0 %
CRC теста CCC650DB
CRC копии CCC650DB
Трек не обнаружен в базе AccurateRip
Копирование... OK

Трек 5

Имя файла E:\nonmusic\torrents\Щастя - Piensas ya en el amor - 2004\05. Іспанка (¿piensas ya en el amor).wav

Длина предзазора 0:00:01.73

Пиковый уровень 95.0 %
Скорость извлечения 3.1 X
Качество трека 100.0 %
CRC теста 7F841756
CRC копии 7F841756
Трек не обнаружен в базе AccurateRip
Копирование... OK

Трек 6

Имя файла E:\nonmusic\torrents\Щастя - Piensas ya en el amor - 2004\06. Вальс.wav

Длина предзазора 0:00:01.72

Пиковый уровень 100.0 %
Скорость извлечения 2.8 X
Качество трека 100.0 %
CRC теста AA5408E0
CRC копии AA5408E0
Трек не обнаружен в базе AccurateRip
Копирование... OK

Трек 7

Имя файла E:\nonmusic\torrents\Щастя - Piensas ya en el amor - 2004\07. Синці.wav

Длина предзазора 0:00:01.73

Пиковый уровень 96.4 %
Скорость извлечения 3.1 X
Качество трека 100.0 %
CRC теста 5E066A2B
CRC копии 5E066A2B
Трек не обнаружен в базе AccurateRip
Копирование... OK

Трек 8

Имя файла E:\nonmusic\torrents\Щастя - Piensas ya en el amor - 2004\08. Місто вранці.wav

Длина предзазора 0:00:01.74

Пиковый уровень 95.6 %
Скорость извлечения 3.3 X
Качество трека 100.0 %
CRC теста 4F548BB1
CRC копии 4F548BB1
Трек не обнаружен в базе AccurateRip
Копирование... OK

Трек 9

Имя файла E:\nonmusic\torrents\Щастя - Piensas ya en el amor - 2004\09. Код.wav

Длина предзазора 0:00:01.72

Пиковый уровень 97.0 %
Скорость извлечения 2.9 X
Качество трека 100.0 %
CRC теста 360A18E2
CRC копии 360A18E2
Трек не обнаружен в базе AccurateRip
Копирование... OK

Трек 10

Имя файла E:\nonmusic\torrents\Щастя - Piensas ya en el amor - 2004\10. Дум.wav

Длина предзазора 0:00:01.74

Пиковый уровень 99.0 %
Скорость извлечения 3.4 X
Качество трека 100.0 %
CRC теста A6FDD8EF
CRC копии A6FDD8EF
Трек не обнаружен в базе AccurateRip
Копирование... OK

Трек 11

Имя файла E:\nonmusic\torrents\Щастя - Piensas ya en el amor - 2004\11. Віночок.wav

Длина предзазора 0:00:01.73

Пиковый уровень 100.0 %
Скорость извлечения 2.9 X
Качество трека 99.9 %
CRC теста C7D9B3A2
CRC копии C7D9B3A2
Трек не обнаружен в базе AccurateRip
Копирование... OK

Трек 12

Имя файла E:\nonmusic\torrents\Щастя - Piensas ya en el amor - 2004\12. Море.wav

Длина предзазора 0:00:01.74

Пиковый уровень 89.3 %
Скорость извлечения 4.0 X
Качество трека 100.0 %
CRC теста 1CA986B3
CRC копии 1CA986B3
Трек не обнаружен в базе AccurateRip
Копирование... OK

Трек 13

Имя файла E:\nonmusic\torrents\Щастя - Piensas ya en el amor - 2004\13. Реп.wav

Длина предзазора 0:00:01.74

Пиковый уровень 92.8 %
Скорость извлечения 3.8 X
Качество трека 100.0 %
CRC теста 23C9B35C
CRC копии 23C9B35C
Трек не обнаружен в базе AccurateRip
Копирование... OK

Трек 14

Имя файла E:\nonmusic\torrents\Щастя - Piensas ya en el amor - 2004\14. 1 2 3 4.wav

Длина предзазора 0:00:01.74

Пиковый уровень 100.0 %
Скорость извлечения 3.8 X
Качество трека 100.0 %
CRC теста F18FC126
CRC копии F18FC126
Трек не обнаружен в базе AccurateRip
Копирование... OK

Трек 15

Имя файла E:\nonmusic\torrents\Щастя - Piensas ya en el amor - 2004\15. Прощавай Земля.wav

Длина предзазора 0:00:01.73

Пиковый уровень 95.9 %
Скорость извлечения 3.4 X
Качество трека 100.0 %
CRC теста 5402926C
CRC копии 5402926C
Трек не обнаружен в базе AccurateRip
Копирование... OK

Трек 16

Имя файла E:\nonmusic\torrents\Щастя - Piensas ya en el amor - 2004\16. Track16.wav

Длина предзазора 0:00:00.74

Пиковый уровень 40.6 %
Скорость извлечения 2.5 X
Качество трека 99.8 %
CRC теста A96951C7
CRC копии A96951C7
Трек не обнаружен в базе AccurateRip
Копирование... OK

Трек 17

Имя файла E:\nonmusic\torrents\Щастя - Piensas ya en el amor - 2004\17. Track17.wav

Длина предзазора 0:00:21.59

Пиковый уровень 94.4 %
Скорость извлечения 4.5 X
Качество трека 100.0 %
CRC теста 8BEB71F8
CRC копии 8BEB71F8
Трек не обнаружен в базе AccurateRip
Копирование... OK

Ни одного трека нет в базе AccurateRip

Ошибок не произошло

Конец отчёта

==== Контрольная сумма отчёта 96A45E1DAFA15F952EAD1CFBDAF17E94B2754781A3E8D090692A3386DC473642 ====
Гурт «Щастя» співає нещасним голосом свого лідера Дмитра Остроушка невеселих пісень.


Якщо Ви справді бажаєте підтримати українське - після прослуховування, якщо музика вам сподобалась, придбайте ліцензійний диск. Підтримаймо вітчизняних виконавців!


Срібний реліз (на рейтинг впливає 50% завантаженого)
 Трекер:    Зареєстрований   

Завантажити / скачати українську музику



відео для новачків



 Зареєстрований:   2017-05-09 12:06
 Розмір:   348 MB 
 Оцінка музики:   9/10 (Голосів: 2)
   
Ваш часовий пояс: GMT + 2 Години

Нова тема   Відповісти