Святий / The Saint (1997) 1080p 2xUkr/Eng | Sub Eng

Нові коментарі

Нова тема   Відповісти
Автор Повідомлення
Pegass 
VIP


З нами з: 17.12.09
Востаннє: 17.08.17
Повідомлень: 511

2017-05-08 23:36  
Святий / The Saint (1997) 1080p 2xUkr/Eng | Sub Eng

Святий / The Saint (1997) 1080p 2xUkr/Eng | Sub Eng


Жанр: пригодницький, детектив, трилер, бойовик
Країна: США



Кінокомпанія: Paramount Pictures
Режисер: Філіп Нойс
Актори: Вел Кілмер, Елізабет Шу, Раде Сербеджа, Валерій Ніколаєв, Генрі Ґудмен, Алан Армстронг, Емілі Мортімер, Лев Пригунов, Луція Сербеджа, Ірина Апексимова, Євгеній Лазарєв

Сюжет:
Шахрай Саймон Темплар - фахівець вищого класу не лише з гаманців і кишень, але і по обдуренню простодушних громадян - на Червоній площі пройдисвіт із знанням справи обдурював натовп легковірних росіян, видаючи себе за чудотворця. Саймон - самотній вовк, який легко переміщається з місця на місце, нічого за собою не залишаючи. Все міняється, коли його наймають для того, щоб він вкрав наукову працю, справу всього життя прекрасної молодої вченої....


Тривалість: 01:56:11
Якість: 1080p [Amazon]
Відео:
кодек:
розмір кадру: 1920x816
бітрейт: 10 Мб/с

Аудіо # 1:
мова: українська
переклад: багатоголосий закадровий
кодек: 2.0
бітрейт: 192 кб/с

Аудіо # 2:
мова: українська
переклад: багатоголосий закадровий
кодек: 2.0
бітрейт: 192 кб/с

Аудіо # 3:
мова: англійська
переклад: оригінал
кодек: 5.1
бітрейт: 448 кб/с

Джерело озвучення:
/

Субтитри:
мова: англійська
тип: програмні (м'які)
формат: *.srt
Info
General
Unique ID : 193474398838111239710889995304629876113 (0x918DD05678EDA420BFDBD82C75F2B591)
Format :
Format version : Version 4 / Version 2
File size : 8.94 GiB
Duration : 1 h 56 min
Overall bit rate mode : Variable
Overall bit rate : 11.0 Mb/s
Movie name : The Saint (1997) 1080p [2xUkr.Eng Sub.Eng] [Hurtom-HDClub]
Encoded date : UTC 2017-05-08 19:37:00
Writing application : mkvmerge v6.1.0 ('Old Devil') built on Mar 2 2013 14:32:37
Writing library : libebml v1.3.0 + libmatroska v1.4.0
Cover : Yes
Attachments : Cover.jpg

Video
ID : 1
Format : AVC
Format/Info : Advanced Video Codec
Format profile : [email protected]
Format settings, CABAC : Yes
Format settings, ReFrames : 4 frames
Codec ID : V_MPEG4/ISO/AVC
Duration : 1 h 56 min
Bit rate mode : Variable
Bit rate : 9 960 kb/s
Maximum bit rate : 15.0 Mb/s
Width : 1 920 pixels
Height : 816 pixels
Display aspect ratio : 2.35:1
Frame rate mode : Constant
Frame rate : 23.976 (24000/1001) FPS
Color space : YUV
Chroma subsampling : 4:2:0
Bit depth : 8 bits
Scan type : Progressive
Bits/(Pixel*Frame) : 0.265
Stream size : 8.08 GiB (90%)
Title : The Saint (1997) 1080p [2xUkr.Eng Sub.Eng] [Hurtom-HDClub]
Writing library : core 148 r2623 d5b2374
Encoding settings : cabac=1 / ref=4 / deblock=1:-1:-1 / analyse=0x3:0x133 / me=umh / subme=9 / psy=1 / psy_rd=1.00:0.15 / mixed_ref=1 / me_range=24 / chroma_me=1 / trellis=2 / 8x8dct=1 / cqm=0 / deadzone=21,11 / fast_pskip=1 / chroma_qp_offset=-3 / threads=25 / lookahead_threads=4 / sliced_threads=0 / nr=150 / decimate=1 / interlaced=0 / bluray_compat=0 / constrained_intra=0 / bframes=8 / b_pyramid=2 / b_adapt=2 / b_bias=0 / direct=3 / weightb=1 / open_gop=0 / weightp=2 / keyint=120 / keyint_min=61 / scenecut=0 / intra_refresh=0 / rc_lookahead=120 / rc=crf / mbtree=1 / crf=18.0 / qcomp=0.60 / qpmin=0 / qpmax=69 / qpstep=4 / vbv_maxrate=15000 / vbv_bufsize=31250 / crf_max=0.0 / nal_hrd=vbr / filler=0 / ip_ratio=1.40 / aq=3:1.00
Language : English
Default : Yes
Forced : No
Color range : Limited
Color primaries : BT.709
Transfer characteristics : BT.709
Matrix coefficients : BT.709

Audio #1
ID : 2
Format : AC-3
Format/Info : Audio Coding 3
Format settings, Endianness : Big
Codec ID : A_AC3
Duration : 1 h 56 min
Bit rate mode : Constant
Bit rate : 192 kb/s
Channel(s) : 2 channels
Channel positions : Front: L R
Sampling rate : 48.0 kHz
Frame rate : 31.250 FPS (1536 spf)
Bit depth : 16 bits
Compression mode : Lossy
Stream size : 160 MiB (2%)
Title : MVO | ICTV | 2.0 | 192 kb/s
Language : Ukrainian
Service kind : Complete Main
Default : Yes
Forced : No

Audio #2
ID : 3
Format : AC-3
Format/Info : Audio Coding 3
Format settings, Endianness : Big
Codec ID : A_AC3
Duration : 1 h 56 min
Bit rate mode : Constant
Bit rate : 192 kb/s
Channel(s) : 2 channels
Channel positions : Front: L R
Sampling rate : 48.0 kHz
Frame rate : 31.250 FPS (1536 spf)
Bit depth : 16 bits
Compression mode : Lossy
Stream size : 160 MiB (2%)
Title : MVO | Inter | 2.0 | 192 kb/s
Language : Ukrainian
Service kind : Complete Main
Default : No
Forced : No

Audio #3
ID : 4
Format : AC-3
Format/Info : Audio Coding 3
Format settings, Endianness : Big
Codec ID : A_AC3
Duration : 1 h 56 min
Bit rate mode : Constant
Bit rate : 448 kb/s
Channel(s) : 6 channels
Channel positions : Front: L C R, Side: L R, LFE
Sampling rate : 48.0 kHz
Frame rate : 31.250 FPS (1536 spf)
Bit depth : 16 bits
Compression mode : Lossy
Stream size : 372 MiB (4%)
Title : Original
Language : English
Service kind : Complete Main
Default : No
Forced : No

Text
ID : 5
Format : UTF-8
Codec ID : S_TEXT/UTF8
Codec ID/Info : UTF-8 Plain Text
Title : Original (AMZN )
Language : English
Default : No
Forced : No

Menu
00:00:00.000 : en:Simon the Magician
00:07:24.121 : en:Friends, Countrymen, Russians
00:11:53.522 : en:The Microchip
00:16:27.824 : en:Martin De Porres
00:21:14.626 : en:Bruno Hautenfaust
00:27:32.560 : en:Cold Fusion Mumbo Jumbo
00:34:09.432 : en:Thomas More
00:39:29.834 : en:What's Your Name
00:44:16.136 : en:An Angel
00:49:20.838 : en:The Spider and the Fly
00:55:33.341 : en:Double Take
01:00:07.543 : en:You Found Me
01:05:56.645 : en:On Thin Ice
01:11:29.448 : en:Russian Hospitality
01:17:34.450 : en:Plus or Minus
01:20:22.551 : en:A Diversion
01:25:51.754 : en:My Personal Saint
01:31:43.756 : en:"Oh, Ye of Little Faith."
01:38:15.359 : en:Revelation in Red Square
01:42:01.560 : en:I Know You
01:49:20.971 : en:Her Biggest Fan
Скріншоти






Джерело: &
За опис та інші дії із доріжками (синхронізацію) дякую DiGen , Arsenfpu
За синхронізацію під Amazon дякую пану Skazhutin (HDClub)
За доріжку від ICTV дякую п. DiGen, olgaya, а пану РОМЕО за запис з каналу ІНТЕР
Особиста оцінка: - Ще не переглядав.


Срібний реліз (на рейтинг впливає 50% завантаженого)
 Трекер:    Зареєстрований   

Завантажити / скачати фільм українською



відео для новачків



 Зареєстрований:   2017-05-08 23:51
 Розмір:   8.94 GB 
 Оцінка фільму:   10/10 (Голосів: 1)
   
Інші релізи
   Святий / The Saint (1997) 2xUkr/Eng Arsenfpu  3 / 0   1.77 GB   2015-12-17 01:53 
   Святий / The Saint (1997) Ukr/Eng DiGen  4 / 0   2.01 GB   2010-03-18 02:52 
mutomba 
Поважний учасник


З нами з: 20.10.13
Востаннє: 17.08.17
Повідомлень: 194

2017-05-09 20:37  
Наскільки пам'ятаю - гарний саундтрек у цього фільму.... та й фільм наче гарний)
Ваш часовий пояс: GMT + 2 Години

Нова тема   Відповісти