Голод до правди (2017) IPTVRemux

Нові коментарі

Нова тема   Відповісти
Автор Повідомлення
Anonymous 







2017-05-08 23:30  
Голод до правди (2017) IPTVRemux

Голод до правди (2017) IPTVRemux


Жанр: документальний, історичний
Країна: Україна, Канада

Телеканал / кіностудія: Фонд "Канада – Україна", Messy Moment Media, Вавилон’13
Режисер: Ендрю Ткач / Andrew Tkach
Сюжет:
Стрічка поєднує дві історії – про подорож до Радянського Союзу канадської репортерки у 30-х роках ХХ століття та про життя родини українського військового - учасника нинішнього конфлікту на Сході України.

Ріа Клайман, молода канадська репортерка, проїхала центральними районами СРСР, коли там лише починався штучний голод. Її газетні статті про події 1932-33 років були одним із небагатьох джерел правди. Саме за опис Голодомору і ГУЛАГу Ріу Клайман вигнали з Радянського Союзу. Пізніше репортерка взялася за хроніки ранніх років влади Гітлера.

У "Голоді до правди" історія Клайман переплітається з розповіддю про життя родини спецпризначенця Збройних сил України Сергія Глондаря. Він був захоплений у полон у бою під Дебальцевим – наступного дня після того, як за мирною угодою Мінськ-2 зброя керованих Російською Федерацією бойовиків мусила замовкнути. Глондар – батько двох доньок, проте ніколи не бачив молодшу з них, а впродовж 700 днів полону його родина отримала тільки сім літер.

У фільмі поєднано рідкісні архівні фото, історичну перспективу й реальну життєву драму сьогодення. До саундтреку стрічки ввійшли пісні Джамали, ONUKA, гуртів ДахаБраха і Dakh Daughters.


Тривалість: 01:12:27
Якість: IPTVRemux | UA:Перший
Відео:
кодек:
розмір кадру: 720 х 576
бітрейт: 1892 кб/с

Аудіо:
мова: українська
переклад: оригінал
кодек: MP2
бітрейт: 192 кб/с
Info
Код:
General
ID                          : 1 (0x1)
Complete name               : Голод до правди (2017) IPTVRemux.H264.MP2-Hurtom.ts
Format                      : MPEG-TS
File size                   : 1.11 GiB
Duration                    : 1 h 12 min
Overall bit rate mode       : Variable
Overall bit rate            : 2 195 kb/s

Video
ID                          : 67 (0x43)
Menu ID                     : 1 (0x1)
Format                      : AVC
Format/Info                 : Advanced Video Codec
Format profile              : [email protected]
Format settings, CABAC      : Yes
Format settings, ReFrames   : 4 frames
Codec ID                    : 27
Duration                    : 1 h 12 min
Bit rate                    : 1 892 kb/s
Width                       : 720 pixels
Height                      : 576 pixels
Display aspect ratio        : 4:3
Frame rate                  : 25.000 FPS
Standard                    : PAL
Color space                 : YUV
Chroma subsampling          : 4:2:0
Bit depth                   : 8 bits
Scan type                   : MBAFF
Scan type, store method     : Interleaved fields
Scan order                  : Top Field First
Bits/(Pixel*Frame)          : 0.183
Stream size                 : 980 MiB (86%)
Color range                 : Limited
Color primaries             : BT.601 PAL
Transfer characteristics    : BT.470 System B, BT.470 System G
Matrix coefficients         : BT.601

Audio
ID                          : 68 (0x44)
Menu ID                     : 1 (0x1)
Format                      : MPEG Audio
Format version              : Version 1
Format profile              : Layer 2
Codec ID                    : 3
Duration                    : 1 h 12 min
Bit rate mode               : Constant
Bit rate                    : 192 kb/s
Channel(s)                  : 2 channels
Sampling rate               : 48.0 kHz
Compression mode            : Lossy
Delay relative to video     : -120 ms
Stream size                 : 99.5 MiB (9%)
Language                    : Ukrainian


Джерело:
Подяка п.krigg070 за запис з ТБ та обробку.
Особиста оцінка: 10 - без зайвих вагань рекомендую всім!


Золотий реліз (завантажене не впливає на рейтинг)
 Трекер:    Зареєстрований   

Завантажити / скачати фільм українською



відео для новачків



 Зареєстрований:   2017-05-09 01:57
 Розмір:   1.11 GB 
 Оцінка фільму:   5/10 (Голосів: 19)
   
Форкуш 
VIP


З нами з: 03.02.10
Востаннє: 22.10.17
Повідомлень: 1886

2017-05-13 12:02  
Яка смілива жінка і як шкода, що тільки тепер ми про неї дізнаємося....
Чекаю, коли нагородять родичів Рії Клайман від держави Україна.
На цю ж тему раджу ще фільм Сергія Буковського Живі (2008) - https://toloka.to/t13653
круті зйомки і монтаж. Дякую за реліз.

Ваш часовий пояс: GMT + 2 Години

Нова тема   Відповісти