Снігові пси / Snow Dogs (2002) 1080p 2xUkr/Eng | Sub Eng

Нові коментарі

Нова тема   Відповісти
Автор Повідомлення
Anonymous 







2017-05-08 21:11  
Снігові пси / Snow Dogs (2002) 1080p 2xUkr/Eng | Sub Eng

Снігові пси / Snow Dogs (2002) 1080p 2xUkr/Eng | Sub Eng


Жанр: пригодницький, комедія, сімейний
Країна: Канада, США



Кінокомпанія: Galapagos Productions, Kerner Entertainment Company, Walt Disney Pictures, Winterdance Productions Ltd.
Режисер: Браян Лейвант
Актори: К’юба Ґудінґ мол. / Cuba Gooding Jr., Джеймс Коберн / James Coburn, Джоанна Баколсо / Joanna Bacalso, Сіско / Sisqó, Нішель Ніколс / Nichelle Nichols, М. Еммет Волш / M. Emmet Walsh, Ґрем Ґрін / Graham Greene, Браян Дойл-Маррей / Brian Doyle-Murray, Жан Мішель Пер / Jean Michel Paré, Майкл Болтон / Michael Bolton та інші

Сюжет:
Усе наше життя наповнене різних сюрпризів! Один дантист на ім’я Тед з Флориди, не міг собі й уявити, що через кілька днів його розмірене життя перетвориться на цікаві пригоди. Він раптово дізнається, що він прийомна дитина, а справжня мати залишила йому у спадок їздових собак у Алясці. І тут все почалося...


Тривалість: 01:39:41
Якість: 1080p [Amazon]
Відео:
кодек:
розмір кадру: 1920 х 1080
бітрейт: 11.4 Мб/с

Аудіо # 1:
мова: українська
переклад: багатоголосий закадровий
кодек: 2.0
бітрейт: 192 кб/с

Аудіо # 2:
мова: українська
переклад: багатоголосий закадровий
кодек: 2.0
бітрейт: 192 кб/с

Аудіо # 3:
мова: англійська
переклад: оригінал
кодек: 5.1
бітрейт: 755 кб/с

Джерело озвучення:
/

Субтитри:
мова: англійська
тип: програмні (м'які)
формат: *.srt

Субтитри:
мова: англійська (SDH)
тип: програмні (м'які)
формат: *.srt
Info
General
Unique ID : 230447606812140502536098233828984529248 (0xAD5E983B7415A772A01F2BCC14ACA160)
Format :
Format version : Version 4 / Version 2
File size : 8.93 GiB
Duration : 1 h 39 min
Overall bit rate mode : Variable
Overall bit rate : 12.8 Mb/s
Movie name : Snow Dogs (2002) 1080p [2xUkr.Eng Sub.Eng] [Hurtom-HDClub]
Encoded date : UTC 2017-05-08 16:32:49
Writing application : mkvmerge v6.1.0 ('Old Devil') built on Mar 2 2013 14:32:37
Writing library : libebml v1.3.0 + libmatroska v1.4.0
Cover : Yes
Attachments : Cover.jpg

Video
ID : 1
Format : AVC
Format/Info : Advanced Video Codec
Format profile : [email protected]
Format settings, CABAC : Yes
Format settings, ReFrames : 4 frames
Codec ID : V_MPEG4/ISO/AVC
Duration : 1 h 39 min
Bit rate mode : Variable
Bit rate : 11.4 Mb/s
Maximum bit rate : 15.0 Mb/s
Width : 1 920 pixels
Height : 1 080 pixels
Display aspect ratio : 16:9
Frame rate mode : Constant
Frame rate : 23.976 (24000/1001) FPS
Color space : YUV
Chroma subsampling : 4:2:0
Bit depth : 8 bits
Scan type : Progressive
Bits/(Pixel*Frame) : 0.230
Stream size : 7.96 GiB (89%)
Title : Snow Dogs (2002) 1080p [2xUkr.Eng Sub.Eng] [Hurtom-HDClub]
Writing library : core 148 r2623 d5b2374
Encoding settings : cabac=1 / ref=4 / deblock=1:-1:-1 / analyse=0x3:0x133 / me=umh / subme=9 / psy=1 / psy_rd=1.00:0.15 / mixed_ref=1 / me_range=24 / chroma_me=1 / trellis=2 / 8x8dct=1 / cqm=0 / deadzone=21,11 / fast_pskip=1 / chroma_qp_offset=-3 / threads=34 / lookahead_threads=5 / sliced_threads=0 / nr=150 / decimate=1 / interlaced=0 / bluray_compat=0 / constrained_intra=0 / bframes=8 / b_pyramid=2 / b_adapt=2 / b_bias=0 / direct=3 / weightb=1 / open_gop=0 / weightp=2 / keyint=120 / keyint_min=61 / scenecut=0 / intra_refresh=0 / rc_lookahead=120 / rc=crf / mbtree=1 / crf=18.0 / qcomp=0.60 / qpmin=0 / qpmax=69 / qpstep=4 / vbv_maxrate=15000 / vbv_bufsize=31250 / crf_max=0.0 / nal_hrd=vbr / filler=0 / ip_ratio=1.40 / aq=3:1.00
Language : English
Default : Yes
Forced : No
Color range : Limited
Color primaries : BT.709
Transfer characteristics : BT.709
Matrix coefficients : BT.709

Audio #1
ID : 2
Format : AC-3
Format/Info : Audio Coding 3
Format settings, Endianness : Big
Codec ID : A_AC3
Duration : 1 h 39 min
Bit rate mode : Constant
Bit rate : 192 kb/s
Channel(s) : 2 channels
Channel positions : Front: L R
Sampling rate : 48.0 kHz
Frame rate : 31.250 FPS (1536 spf)
Bit depth : 16 bits
Compression mode : Lossy
Stream size : 137 MiB (1%)
Title : MVO | ICTV | 2.0 | 192 kb/s
Language : Ukrainian
Service kind : Complete Main
Default : Yes
Forced : No

Audio #2
ID : 3
Format : AC-3
Format/Info : Audio Coding 3
Format settings, Endianness : Big
Codec ID : A_AC3
Duration : 1 h 39 min
Bit rate mode : Constant
Bit rate : 192 kb/s
Channel(s) : 2 channels
Channel positions : Front: L R
Sampling rate : 48.0 kHz
Frame rate : 31.250 FPS (1536 spf)
Bit depth : 16 bits
Compression mode : Lossy
Stream size : 137 MiB (1%)
Title : MVO | TET | 2.0 | 192 kb/s
Language : Ukrainian
Service kind : Complete Main
Default : No
Forced : No

Audio #3
ID : 4
Format :
Format/Info : Digital Theater Systems
Mode : 16
Format settings, Endianness : Big
Codec ID : A_DTS
Duration : 1 h 39 min
Bit rate mode : Constant
Bit rate : 755 kb/s
Channel(s) : 6 channels
Channel positions : Front: L C R, Side: L R, LFE
Sampling rate : 48.0 kHz
Frame rate : 93.750 FPS (512 spf)
Bit depth : 24 bits
Compression mode : Lossy
Stream size : 538 MiB (6%)
Title : Original
Language : English
Default : No
Forced : No

Text #1
ID : 5
Format : UTF-8
Codec ID : S_TEXT/UTF8
Codec ID/Info : UTF-8 Plain Text
Title : English
Language : English
Default : No
Forced : No

Text #2
ID : 6
Format : UTF-8
Codec ID : S_TEXT/UTF8
Codec ID/Info : UTF-8 Plain Text
Title : English (SDH)
Language : English
Default : No
Forced : No

Menu
00:00:00.000 : :Chapter 01
00:04:24.000 : :Chapter 02
00:08:00.000 : :Chapter 03
00:12:28.000 : :Chapter 04
00:18:14.000 : :Chapter 05
00:23:37.000 : :Chapter 06
00:26:56.000 : :Chapter 07
00:36:04.000 : :Chapter 08
00:37:47.000 : :Chapter 09
00:40:41.000 : :Chapter 10
00:41:54.000 : :Chapter 11
00:45:39.000 : :Chapter 12
00:48:56.000 : :Chapter 13
00:52:20.000 : :Chapter 14
00:56:46.000 : :Chapter 15
00:59:50.000 : :Chapter 16
01:01:14.000 : :Chapter 17
01:04:31.000 : :Chapter 18
01:09:45.000 : :Chapter 19
01:12:11.000 : :Chapter 20
01:17:53.000 : :Chapter 21
01:22:57.000 : :Chapter 22
01:27:39.000 : :Chapter 23
01:33:09.000 : :Chapter 24
Скріншоти

















Джерело: &
За опис та інші дії із доріжками дякую sergiyko, DеLight та rooster
За синхронізацію під Amazon дякую пану MGK (HDClub)
За запис з ТБ подяка xslim i karvai0
Особиста оцінка: 10 - без зайвих вагань рекомендую всім!


Срібний реліз (на рейтинг впливає 50% завантаженого)
 Трекер:    Зареєстрований   

Завантажити / скачати фільм українською



відео для новачків



 Зареєстрований:   2017-05-08 21:15
 Розмір:   8.93 GB 
 Оцінка фільму:   8.7/10 (Голосів: 3)
   
Інші релізи
   Снігові пси / Snow Dogs (2002) 720p 2xUkr/Eng | sub Eng sergiyko  1 / 0   3.59 GB   2013-07-03 00:29 
   Снігові пси / Snow Dogs (2002) 2xUkr | sub Eng DеLight  4 / 0   1.46 GB   2013-07-02 16:32 
Ваш часовий пояс: GMT + 2 Години

Нова тема   Відповісти