Довіра / Trust (2010) 1080p 2xUkr/Eng | Sub Eng

Нові коментарі

Нова тема   Відповісти
Автор Повідомлення
Anonymous 







2017-05-08 17:03  
Довіра / Trust (2010) 1080p 2xUkr/Eng | Sub Eng

Довіра / Trust (2010) 1080p 2xUkr/Eng | Sub Eng


Жанр: кримінальний, драма, трилер
Країна: США



Кінокомпанія: Millennium Films, Nu-Image Films, Dark Harbor Stories
Режисер: Девід Швіммер
Актори: Клайв Овен, Кетрін Кіннер, Ліана Ліберато, Віола Девіс, Джейсон Кларк

Сюжет:
Молода дівчина знайомиться з хлопцем по Інтернету, але коли вона зустрічається з ним, виявляється, що йому 35 років...


Тривалість: 01:45:36
Якість: 1080p
Відео:
кодек:
розмір кадру: 1920 х 800
бітрейт: 13.1 мб/с

Аудіо # 1:
мова: українська
переклад: багатоголосий закадровий
кодек: 2.0
бітрейт: 192 кб/с

Аудіо # 2:
мова: українська
переклад: багатоголосий закадровий
кодек: 2.0
бітрейт: 192 кб/с
Інформація про озвучення

Звук записано з телеканалу Інтер
Переклад виконано та озвучено студією Так Треба Продакшн
Аудіо # 3:
мова: англійська
переклад: оригінал
кодек: 5.1
бітрейт: 640 кб/с

Джерело озвучення:
/

Субтитри:
мова: англійська
тип: пререндерні
формат: pgs
Info

General
Unique ID : 200346120045203763763933066383322371633 (0x96B94259DCAE10DFADA842167AB5D631)
Format :
Format version : Version 4 / Version 2
File size : 10.5 GiB
Duration : 1 h 45 min
Overall bit rate : 14.2 Mb/s
Movie name : Trust (2010) 1080p [2xUkr.Eng Sub.Eng] [Hurtom]
Encoded date : UTC 2017-05-08 20:10:40
Writing application : mkvmerge v6.1.0 ('Old Devil') built on Mar 2 2013 14:32:37
Writing library : libebml v1.3.0 + libmatroska v1.4.0
Cover : Yes
Attachments : Cover.jpg

Video
ID : 1
Format : AVC
Format/Info : Advanced Video Codec
Format profile : [email protected]
Format settings, CABAC : Yes
Format settings, ReFrames : 5 frames
Codec ID : V_MPEG4/ISO/AVC
Duration : 1 h 45 min
Bit rate : 13.1 Mb/s
Width : 1 920 pixels
Height : 800 pixels
Display aspect ratio : 2.40:1
Frame rate mode : Constant
Frame rate : 23.976 (24000/1001) FPS
Color space : YUV
Chroma subsampling : 4:2:0
Bit depth : 8 bits
Scan type : Progressive
Bits/(Pixel*Frame) : 0.357
Stream size : 9.50 GiB (91%)
Title : Trust (2010) 1080p [2xUkr.Eng Sub.Eng] [Hurtom]
Writing library : core 115 r2008 4c552d8
Encoding settings : cabac=1 / ref=5 / deblock=1:-3:-3 / analyse=0x3:0x133 / me=tesa / subme=10 / psy=1 / psy_rd=0.89:0.10 / mixed_ref=0 / me_range=24 / chroma_me=1 / trellis=2 / 8x8dct=1 / cqm=0 / deadzone=21,11 / fast_pskip=0 / chroma_qp_offset=-3 / threads=12 / sliced_threads=0 / nr=0 / decimate=1 / interlaced=0 / bluray_compat=0 / constrained_intra=0 / bframes=8 / b_pyramid=2 / b_adapt=2 / b_bias=0 / direct=3 / weightb=1 / open_gop=0 / weightp=2 / keyint=250 / keyint_min=23 / scenecut=40 / intra_refresh=0 / rc_lookahead=90 / rc=2pass / mbtree=1 / bitrate=13150 / ratetol=1.0 / qcomp=0.60 / qpmin=10 / qpmax=69 / qpstep=4 / cplxblur=20.0 / qblur=0.5 / ip_ratio=1.40 / aq=1:0.60
Language : English
Default : Yes
Forced : No

Audio #1
ID : 2
Format : AC-3
Format/Info : Audio Coding 3
Format settings, Endianness : Big
Codec ID : A_AC3
Duration : 1 h 45 min
Bit rate mode : Constant
Bit rate : 192 kb/s
Channel(s) : 2 channels
Channel positions : Front: L R
Sampling rate : 48.0 kHz
Frame rate : 31.250 FPS (1536 spf)
Bit depth : 16 bits
Compression mode : Lossy
Stream size : 145 MiB (1%)
Title : MVO | 1+1 | 2.0 | 192 kb/s
Language : Ukrainian
Service kind : Complete Main
Default : Yes
Forced : No

Audio #2
ID : 3
Format : AC-3
Format/Info : Audio Coding 3
Format settings, Endianness : Big
Codec ID : A_AC3
Duration : 1 h 45 min
Bit rate mode : Constant
Bit rate : 192 kb/s
Channel(s) : 2 channels
Channel positions : Front: L R
Sampling rate : 48.0 kHz
Frame rate : 31.250 FPS (1536 spf)
Bit depth : 16 bits
Compression mode : Lossy
Stream size : 145 MiB (1%)
Title : MVO | Inter [TTP] | 2.0 | 192 kb/s
Language : Ukrainian
Service kind : Complete Main
Default : No
Forced : No

Audio #3
ID : 4
Format : AC-3
Format/Info : Audio Coding 3
Format settings, Endianness : Big
Codec ID : A_AC3
Duration : 1 h 45 min
Bit rate mode : Constant
Bit rate : 640 kb/s
Channel(s) : 6 channels
Channel positions : Front: L C R, Side: L R, LFE
Sampling rate : 48.0 kHz
Frame rate : 31.250 FPS (1536 spf)
Bit depth : 16 bits
Compression mode : Lossy
Stream size : 483 MiB (5%)
Title : Original
Language : English
Service kind : Complete Main
Default : No
Forced : No

Text
ID : 5
Format : PGS
Muxing mode : zlib
Codec ID : S_HDMV/PGS
Codec ID/Info : Picture based subtitle format used on BDs/HD-DVDs
Language : English
Default : No
Forced : No

Menu
00:00:00.000 : en:00:00:00.000
00:13:36.899 : en:00:13:36.899
00:19:27.333 : en:00:19:27.333
00:27:07.668 : en:00:27:07.668
00:36:31.981 : en:00:36:31.981
00:47:39.398 : en:00:47:39.398
00:55:07.846 : en:00:55:07.846
01:03:27.303 : en:01:03:27.303
01:15:35.406 : en:01:15:35.406
01:21:34.890 : en:01:21:34.890
01:27:26.950 : en:01:27:26.950
01:38:07.840 : en:01:38:07.840
Скріншоти












Джерело:
Подяка за запис пану РОМЕО
За опис та сихронізацію доріжки під з каналу 1+1 дякую пану AngryBirdsUA
За запис та сихронізацію доріжки під з каналу Інтер (ТТП) та оригінальну 5.1 640 кб/с дякую пану krigg070
За постер подяка п.terminator.92
Особиста оцінка: 10 - без зайвих вагань рекомендую всім!

Прохання перезавантажити торрент.
Відбулися деякі зміни: Додано доріжку від Інтера (Так Треба Продакшн).
Дякую пану krigg070 за те, що повідомив і сихронізував доріжку.


 Трекер:    Зареєстрований   

Завантажити / скачати фільм українською



відео для новачків



 Зареєстрований:   2017-05-08 22:45
 Розмір:   10.46 GB 
 Оцінка фільму:   9.3/10 (Голосів: 6)
   
Інші релізи
   Довіра / Trust (2010) 2xUkr/Eng Arsenfpu  7 / 0   1.95 GB   2017-08-12 14:27 
Світланочка 
Новенький


З нами з: 25.02.14
Востаннє: 16.12.17
Повідомлень: 1

2017-05-11 19:24  
Гарний і повчальний фільм. Корисно подивитись і підліткам і їх батькам.
Mayden2 
Новенький


З нами з: 30.06.14
Востаннє: 17.12.17
Повідомлень: 4

2017-05-12 16:17  
Закачка почалась, але зупинилась на 0,7% і стоїть так вже 4 дні. Станьте будь-ласка хтось на роздачу.
igor911 
Відео Гуртом
Відео Гуртом


З нами з: 18.01.08
Востаннє: 17.12.17
Повідомлень: 8515

2017-05-12 16:32  
Mayden2 написано:
і стоїть так вже 4 дні

тебе немає у списку пірів, а у твоєму профілі цей реліз відсутній у списку тих, що вантажаться (інші 5, що роздаєш, є). Перевір статус завантаження та статус анонсера в клієнті.

Patriot_ukr 
VIP


З нами з: 06.04.15
Востаннє: 16.12.17
Повідомлень: 1930

2017-05-12 16:37  
Mayden2, у вас, напевно, стара версія файлу. Реліз створено у 18:03, у анонсах він не був, а торрент зареєстровано у 23:45. Завантажте файл заново.
Ваш часовий пояс: GMT + 2 Години

Нова тема   Відповісти