Євробачення 2016. Фінал / Eurovision 2016: Final (26 треків) (2016) 1080p

Нові коментарі

Нова тема   Відповісти
Останній раз роздавалося sergiyko.5 (2017-07-22)
Автор Повідомлення
sergiyko.5 
VIP


З нами з: 25.02.16
Востаннє: 19.08.17
Повідомлень: 993

2017-05-08 13:13  
Євробачення 2016. Фінал / Eurovision 2016: Final (26 треків) (2016) 1080p

Євробачення 2016. Фінал / Eurovision 2016: Final (26 треків) (2016) 1080p

Жанр: Пісенний конкурс
Країна: Швеція
Телеканал: Feed

Опис:
Пісенний конкурс «Євробачення» 2016 — 61-й пісенний конкурс Євробачення, який відбувся у шведській столиці Стокгольмі з огляду на перемогу Монса Сельмерлева із піснею «Heroes» у попередньому пісенному конкурсі, який провели у Відні, Австрія.
Швеція вшосте приймала конкурс, а місто Стокгольм — утретє. Конкурс містив два півфінали (10 і 12 травня) та фінал (14 травня). Ведучими всіх трьох шоу були Монс Сельмерлев та Петра Меде (яка також була ведучою Євробачення 2013 в Мальме).
42 країни підтвердили, що візьмуть участь у заході. Болгарія, Боснія і Герцеговина, Україна і Хорватія заявили про своє повернення на конкурс, водночас Португалія вирішила відмовитись від нього, а Румунію дискваліфікували за борги румунського телеканалу TVR (Televiziunea Română) перед Європейською мовною спілкою.
Захід організовував шведський телеканал Sveriges Television.


Треклист:
1. Laura Tesoro - What's the Pressure? (Бельгія)
2. Gabriela Guncikova - I Stand (Чехія)
3. Douwe Bob - Slow Down (Нідерланди)
4. Samra Rahimli - Miracle (Азербайджан)
5. Freddie - Pioneer (Угорщина)
6. Francesca Michielin - No Degree of Separation (Італія)
7. Hovi Star - Made of Stars (Ізраїль)
8. Полі Генова - If Love Was a Crime (Болгарія)
9. Frans - If I were Sorry (Швеція)
10. Jamie-Lee Kriewitz - Ghost (Німеччина)
11. Amir Haddad - J'ai cherche (Франція)
12. Міхал Шпак - Color of Your Life (Польща)
13. Dami Im - Sound of Silence (Австралія)
14. Minus One - Alter Ego (Кіпр)
15. ZAA - Goodbye (Сербія)
16. Donny Montell - I've Been Waiting for This Night (Литва)
17. Ніна Краліч - Lighthouse (Хорватія)
18. Сергій Лазарєв - You Are The Only One (Росія)
19. Barei - Say Yay! (Іспанія)
20. Justs - Heartbeat (Латвія)
21. Джамала - 1944 (Україна)
22. Ira Losco - Walk on Water (Мальта)
23. Nika Kocharov & Young Georgian Lolitaz - Midnight Gold (Грузія)
24. Zoe - Loin d'ici (Австрія)
25. Joe & Jake - You're Not Alone (Великобританія)
26. Івета Мукучян - LoveWave (Вірменія)
Justin Timberlake - Can't Stop The Feeling

Тривалість: 00:03:58 трек
Якість:

Відео: кодек: розмір кадру: 1920 х 1080 бітрейт: 10000 кб/с
Аудіо # 1: мова: англійська переклад: оригінал кодек: -HD 5.1 бітрейт: 6912 кб/с
Аудіо # 2: мова: українська переклад: двоголосий закадровий кодек: 5.1 бітрейт: 1509 кб/с
Аудіо # 3: мова: англійська переклад: оригінал кодек: 5.1 бітрейт: 448 кб/с
Про файл:

General
Unique ID : 206985026067484212918830977401025095201 (0x9BB7DDB07E1DFE038F99BCFB5D926621)
Complete name : E:\Torrents\Eurovision\Eurovision.Song.Contest.2016.Final.Music\01.Belgium.Eurovision 2016.Final.1080p..
Format :
Format version : Version 2
File size : 601 MiB
Duration : 3mn 57s
Overall bit rate : 21.2 Mbps
Writing application : Lavf54.63.104
Writing library : Lavf54.63.104 / Lavf54.63.104

Video
ID : 1
Format : AVC
Format/Info : Advanced Video Codec
Format profile : [email protected]
Format settings, CABAC : Yes
Format settings, ReFrames : 4 frames
Format settings, GOP : M=2, N=15
Codec ID : V_MPEG4/ISO/AVC
Duration : 3mn 57s
Width : 1 920 pixels
Height : 1 080 pixels
Display aspect ratio : 16:9
Frame rate mode : Constant
Frame rate : 25.000 fps
Color space : YUV
Chroma subsampling : 4:2:0
Bit depth : 8 bits
Scan type : Progressive
Default : No
Forced : No

Audio #1
ID : 2
Format :
Format/Info : Digital Theater Systems
Format profile : MA / Core
Mode : 16
Format settings, Endianness : Big
Codec ID : A_DTS
Duration : 3mn 57s
Bit rate mode : Variable / Constant
Bit rate : Unknown / 1 509 Kbps
Channel(s) : 6 channels
Channel positions : Front: L C R, Side: L R, LFE
Sampling rate : 48.0 KHz
Frame rate : 93.750 fps (512 spf)
Bit depth : 24 bits
Compression mode : Lossless / Lossy
Language : English
Default : Yes
Forced : No

Audio #2
ID : 3
Format :
Format/Info : Digital Theater Systems
Mode : 16
Format settings, Endianness : Big
Codec ID : A_DTS
Duration : 3mn 57s
Bit rate mode : Constant
Bit rate : 1 510 Kbps
Channel(s) : 6 channels
Channel positions : Front: L C R, Side: L R, LFE
Sampling rate : 48.0 KHz
Frame rate : 93.750 fps (512 spf)
Bit depth : 24 bits
Compression mode : Lossy
Stream size : 42.8 MiB (7%)
Language : Ukrainian
Default : No
Forced : No

Audio #3
ID : 4
Format : AC-3
Format/Info : Audio Coding 3
Mode extension : CM (complete main)
Format settings, Endianness : Big
Codec ID : A_AC3
Duration : 3mn 57s
Bit rate mode : Constant
Bit rate : 448 Kbps
Channel(s) : 6 channels
Channel positions : Front: L C R, Side: L R, LFE
Sampling rate : 48.0 KHz
Frame rate : 31.250 fps (1536 spf)
Compression mode : Lossy
Stream size : 12.7 MiB (2%)
Language : English
Default : No
Forced : No

Скріншоти:



Автор ріпу:
sergiyko



Бронзовий реліз (на рейтинг впливає 75% завантаженого)
 Трекер:    Зареєстрований   

Завантажити / скачати передачу українською



відео для новачків



 Зареєстрований:   2017-05-08 13:13
 Розмір:   13.28 GB 
 Оцінка передачі:   6.4/10 (Голосів: 5)
   
11FrYkT 
Модератор відео


З нами з: 20.02.11
Востаннє: 19.08.17
Повідомлень: 3807

2017-05-08 15:27  
sergiyko.5 написано:
розмір кадру: 1920 х 1080

скріншоти не відповідають вказаному розміру

Ваш часовий пояс: GMT + 2 Години

Нова тема   Відповісти