Льодовиковий період: Курс на зіткнення / Ice Age: Collision Course (2016) UHD 4K 2160p H.265 Ukr/Eng | Sub Ukr/Eng

Нові коментарі

Нова тема   Відповісти
Автор Повідомлення
Vladuk88 
Новенький


З нами з: 14.10.09
Востаннє: 16.08.17
Повідомлень: 5

2017-05-08 12:51  
Льодовиковий період: Курс на зіткнення / Ice Age: Collision Course (2016) UHD 4K 2160p H.265 Ukr/Eng | Sub Ukr/Eng

Льодовиковий період: Курс на зіткнення / Ice Age: Collision Course (2016) UHD 4K 2160p H.265 Ukr/Eng | Sub Ukr/Eng

Повна колекція українських постерів














Жанр: анімація, комедія, пригоди
Країна: США



Кінокомпанія: Blue Sky Studios, Twentieth Century Fox Animation
Режисер: Майк Трумейєр, Ґален Т. Чу
Актори: Нік Офферман, Адам Дівайн, Саймон Пеґґ, Дженніфер Лопез, Мелісса Рауч, Стефані Беатріз, Джон Леґуізамо, Квін Латіфа

Сюжет:
Веселий і цікавий мультфільм для всієї сім'ї «Льодовиковий період 5: Зіткнення неминуче» подарує глядачам масу позитивних емоцій і прекрасний настрій. Як і в попередніх частинах мультиплікаційного фільму, сюжет картини розповість про невгомонну білку Скрет, мисливця за жолудями, який постійно потрапляє в смішні, але в той же час небезпечні ситуації, і небезпека загрожує не лише їй, але і іншим мешканцям планети. Події розвертаються в далекі часи, коли земля була населена мамонтами і динозаврами. Головна героїня мультфільму, білка Скрет, як завжди, вирушає за жолудем, і несподівано опиняється в одній невідомій печері, яка використовується як гараж. Там вона наткнеться на космічний корабель, і звичайно, постарається попасти у нього. Її допитливість і безпосередність заведуть її прямо в кабіну пілота. Захопившись натисненням різних кнопок і важелів, корабель піднімається над поверхнею землі і відлітає в космос. Таємничі і загадкові простори - це нове місце, де білка проявить себе не з самого кращого боку. Там героїню чекають нові пригоди, і можна здогадатися, що це не пройде безслідно для планети. Інші герої мультфільму стають свідками падіння осколків метеорита. Як стане зрозумілим пізніше, землі і всім мешканцям загрожує небезпека, а все тому, що Скрет не може жити спокійно і завжди суне свій ніс куди попало. До поверхні планети наближається величезний метеорит, який здатний в лічені секунди стерти все живе із землі, і аби врятуватися, Дієго, Сід, Мені і інші тварини вирушають у пошуках безпечного куточка на планеті, аби перечекати можливу катастрофу. Всіх мешканців землі охопила паніка, почуття страху рухає всіма їх вчинками. Проте трійця давніх товаришів завжди залишається спокійною і холоднокровною, реально оцінюючи ситуацію і прагнучи знайти вихід. На їх дорозі зустрінуться нові труднощі і неприємності, їх дорога подарує безліч приємних знайомств. Чи зможе непосида Скрет запобігти знищенню планети і чим це обернеться для білки? Куди попрямують жителі планети і де знайдуть собі спокійне місце для життя? Дивні пригоди, наповнені інтригами і небезпекою, у поєднанні з іскрометним гумором і нестандартною розв'язкою в мультфільмі - все це доступно глядачам картини «Льодовиковий період 5: Зіткнення неминуче».


Тривалість: 01:34:02
Якість: 4K UltraHD 2160p
Відео:
кодек: H.265
розмір кадру: 3840x1600
бітрейт: 38,6 Мбіт/с
бітова глибина: 10 біт

Аудіо # 1:
мова: українська
переклад: професійний дубльований
кодек: 5.1
бітрейт: 448 Кб/с

Аудіо # 2:
мова: англійська
переклад: оригінал
кодек: -HD MA 7.1
бітрейт: 4613 Кб/с

Джерело озвучення:


Субтитри # 1:
мова: українська
тип: пререндерні
формат: VobSub

Субтитри # 2:
мова: англійська
тип: пререндерні
формат: VobSub
Info
General
Unique ID : 250426909887739425157747084439727440002 (0xBC6677ED363E29239131390C12210082)
Complete name : D:\FILMS\Ice Age Collision Course 2016 UHD 4K 2160p) (1).
Format :
Format version : Version 4 / Version 2
File size : 28.8 GiB
Duration : 1 h 34 min
Overall bit rate : 43.6 Mb/s
Encoded date : UTC 2017-05-07 19:20:40
Writing application : mkvmerge v10.0.0 ('To Drown In You') 64bit
Writing library : libebml v1.3.4 + libmatroska v1.4.5

Video
ID : 1
Format : HEVC
Format/Info : High Efficiency Video Coding
Format profile : Main [email protected]@Main
Codec ID : V_MPEGH/ISO/HEVC
Duration : 1 h 34 min
Bit rate : 38.6 Mb/s
Width : 3 840 pixels
Height : 1 600 pixels
Display aspect ratio : 2.40:1
Frame rate mode : Constant
Frame rate : 23.976 (24000/1001) FPS
Color space : YUV
Chroma subsampling : 4:2:0
Bit depth : 10 bits
Bits/(Pixel*Frame) : 0.262
Stream size : 25.5 GiB (88%)
Writing library : x265 2.2+22-20217c8af8ac:[Windows][GCC 6.2.0][64 bit] 10bit
Encoding settings : cpuid=1173503 / frame-threads=5 / numa-pools=14,14 / wpp / no-pmode / no-pme / no-psnr / no-ssim / log-level=2 / input-csp=1 / input-res=3840x1600 / interlace=0 / total-frames=136211 / level-idc=0 / high-tier=1 / uhd-bd=0 / ref=3 / no-allow-non-conformance / no-repeat-headers / annexb / no-aud / no-hrd / info / hash=0 / no-temporal-layers / open-gop / min-keyint=23 / keyint=250 / bframes=4 / b-adapt=2 / b-pyramid / bframe-bias=0 / rc-lookahead=20 / lookahead-slices=8 / scenecut=40 / no-intra-refresh / ctu=64 / min-cu-size=8 / no-rect / no-amp / max-tu-size=32 / tu-inter-depth=1 / tu-intra-depth=1 / limit-tu=0 / rdoq-level=0 / signhide / no-tskip / nr-intra=0 / nr-inter=0 / no-constrained-intra / no-strong-intra-smoothing / max-merge=2 / limit-refs=3 / no-limit-modes / me=3 / subme=5 / merange=57 / temporal-mvp / weightp / no-weightb / no-analyze-src-pics / deblock=-3:-3 / no-sao / no-sao-non-deblock / rd=3 / no-early-skip / no-rskip / no-fast-intra / no-tskip-fast / no-cu-lossless / no-b-intra / rdpenalty=0 / psy-rd=3.50 / psy-rdoq=0.00 / no-rd-refine / analysis-mode=0 / no-lossless / cbqpoffs=0 / crqpoffs=0 / rc=crf / crf=16.0 / qcomp=0.60 / qpstep=1 / stats-write=0 / stats-read=0 / ipratio=1.10 / pbratio=1.00 / aq-mode=0 / aq-strength=0.00 / no-cutree / zone-count=0 / no-strict-cbr / qg-size=64 / rc-grain / qpmax=69 / qpmin=0 / sar=1 / overscan=0 / videoformat=5 / range=0 / colorprim=1 / transfer=1 / colormatrix=1 / chromaloc=0 / display-window=0 / max-cll=0,0 / min-luma=0 / max-luma=1023 / log2-max-poc-lsb=8 / vui-timing-info / vui-hrd-info / slices=1 / opt-qp-pps / opt-ref-list-length-pps / no-multi-pass-opt-rps / scenecut-bias=0.05 / no-opt-cu-delta-qp / no-aq-motion
Language : English
Default : Yes
Forced : No
Color range : Limited
Color primaries : BT.709
Transfer characteristics : BT.709
Matrix coefficients : BT.709

Audio #1
ID : 2
Format : AC-3
Format/Info : Audio Coding 3
Format settings, Endianness : Big
Codec ID : A_AC3
Duration : 1 h 34 min
Bit rate mode : Constant
Bit rate : 448 kb/s
Channel(s) : 6 channels
Channel positions : Front: L C R, Side: L R, LFE
Sampling rate : 48.0 kHz
Frame rate : 31.250 FPS (1536 spf)
Bit depth : 16 bits
Compression mode : Lossy
Delay relative to video : 2 s 500 ms
Stream size : 303 MiB (1%)
Language : Ukrainian
Service kind : Complete Main
Default : Yes
Forced : Yes

Audio #2
ID : 3
Format :
Format/Info : Digital Theater Systems
Format profile : MA / ES Matrix / Core
Mode : 16
Format settings, Endianness : Big
Codec ID : A_DTS
Duration : 1 h 34 min
Bit rate mode : Variable / Constant / Constant
Bit rate : 4 618 kb/s / 1 509 kb/s / 1 509 kb/s
Channel(s) : 8 channels / 7 channels / 6 channels
Channel positions : Front: L C R, Side: L R, Back: L R, LFE / Front: L C R, Side: L R, Back: C, LFE / Front: L C R, Side: L R, LFE
Sampling rate : 48.0 kHz
Frame rate : 93.750 FPS (512 spf)
Bit depth : 24 bits
Compression mode : Lossless / Lossy / Lossy
Delay relative to video : 2 s 500 ms
Stream size : 3.05 GiB (11%)
Language : English
Default : No
Forced : No

Text #1
ID : 4
Format : VobSub
Muxing mode : zlib
Codec ID : S_VOBSUB
Codec ID/Info : Picture based subtitle format used on DVDs
Duration : 1 h 33 min
Bit rate : 5 220 b/s
Count of elements : 1221
Stream size : 3.49 MiB (0%)
Language : Ukrainian
Default : Yes
Forced : No

Text #2
ID : 5
Format : VobSub
Muxing mode : zlib
Codec ID : S_VOBSUB
Codec ID/Info : Picture based subtitle format used on DVDs
Duration : 1 h 23 min
Bit rate : 5 823 b/s
Count of elements : 1216
Stream size : 3.49 MiB (0%)
Language : English
Default : No
Forced : No
Скріншоти
Джерело: &
Особиста оцінка: 8 - мені сподобалося


Срібний реліз (на рейтинг впливає 50% завантаженого)
 Трекер:    Зареєстрований   

Завантажити / скачати мультфільм українською



відео для новачків



 Зареєстрований:   2017-05-08 15:13
 Розмір:   28.81 GB 
 Оцінка мультфільму:   9.9/10 (Голосів: 11)
 Оновлено
   
Ваш часовий пояс: GMT + 2 Години

Нова тема   Відповісти